Loading...

Muay Thai Assassin (2011)

Posted By : FenixN | Date : 08 Apr 2011 10:05:55 | Comments : 4 |
|



Muay Thai Assassin (2011)
DVDRip | AVI / XviD, 1907 kb/s | 640x352 | 01:22:40 | French: AC3, 448 kb/s (6 ch) | 1.37 GB
Genre: Action | Thailand

Un mystérieux clan d'assassins rompus aux techniques ancestrales du Muay Thai Boxing, sème la terreur à l'intérieur de l'Empire de Siam. Asservis et humiliés, les habitants doivent se rebeller pour conserver leur liberté. Une guerre à mains nues se prépare pour rétablir paix et justice. La liberté au bout de leurs poings, une mort certaine au bout du combat : seule la puissance mystique des guerriers Muay Thai leur assurera la victoire !.

MediaInfo:
Format : AVI
Format/Info : Audio Video Interleave
File size : 1.37 GiB
Duration : 1h 22mn
Overall bit rate : 2 364 Kbps

Video
ID : 0
Format : MPEG-4 Visual
Format profile : Advanced Simple@L5
Format settings, BVOP : Yes
Format settings, QPel : No
Format settings, GMC : No warppoints
Format settings, Matrix : Default (MPEG)
Muxing mode : Packed bitstream
Codec ID : XVID
Codec ID/Hint : XviD
Duration : 1h 22mn
Bit rate : 1 907 Kbps
Width : 640 pixels
Height : 352 pixels
Display aspect ratio : 16:9
Frame rate : 25.000 fps
Resolution : 8 bits
Colorimetry : 4:2:0
Scan type : Progressive
Bits/(Pixel*Frame) : 0.339
Stream size : 1.10 GiB (81%)
Writing library : XviD 1.2.0.dev47 (UTC 2006-11-01)

Audio
ID : 1
Format : AC-3
Format/Info : Audio Coding 3
Format_Settings_ModeExtension : CM (complete main)
Codec ID : 2000
Duration : 1h 22mn
Bit rate mode : Constant
Bit rate : 448 Kbps
Channel(s) : 6 channels
Channel positions : Front: L C R, Side: L R, LFE
Sampling rate : 48.0 KHz
Stream size : 265 MiB (19%)
Alignment : Split accross interleaves
Interleave, duration : 40 ms (1.00 video frame)
Interleave, preload duration : 500 ms


screenshot





Need more movie with french language?
Welcome to my avaxhome blog: here

ADVERTISING » Click here to download Ebooks/Magazines for free « ADVERTISING


Posted By: trucmuchenord Date: 08 Apr 2011 11:20:21
filesonic !!! no thanks, what a pity !
Posted By: teknopower Date: 08 Apr 2011 23:01:55
Have English subtitles ??
Posted By: teknopower Date: 10 Apr 2011 01:38:24
Anyone looked at this movie yet ?? any english subtitles ?
Posted By: Trpimix Date: 12 Apr 2011 12:11:28
trucmuchenord
If you wanna, you can download one of these:

http://uploading.com/files/1bf36291/Muay%2BThai%2BAssassin%2B2011%2BTRUEFRENCH%2BDVDRiP%2BXViD.avi

OR

http://www.2shared.com/video/NjyW3UPT/Muay-Thai_Assassin_2011_TRUEFR.html

OR

http://www.fileserve.com/file/MzuVkpj

Size: 701.13 MB