Loading...

Hansel & Gretel: Witch Hunters (Unrated) (2013)

Posted By : vivid23 | Date : 13 May 2013 22:49:49 | Comments : 1 |
|



Hansel & Gretel: Witch Hunters (Unrated) (2013)
Bluray-rip 720p | 1280x536 | MKV/x264 @ 6000 Kbps | 97mn | Audio: English DTS 1510 kbps, 6 channels | Subs: English | 5.14 GB
Genre: Action | Fantasy | Horror

In this spin on the fairy tale, Hansel & Gretel are now bounty hunters who track and kill witches all over the world. As the fabled Blood Moon approaches, the siblings encounter a new form of evil that might hold a secret to their past.

More info

Mediainfo log
Video
ID : 1
Format : AVC
Format/Info : Advanced Video Codec
Format profile : High@L4.1
Format settings, CABAC : Yes
Format settings, ReFrames : 5 frames
Format settings, GOP : M=4, N=16
Codec ID : V_MPEG4/ISO/AVC
Duration : 1h 37mn
Bit rate : 6 000 Kbps
Width : 1 280 pixels
Height : 536 pixels
Display aspect ratio : 2.35:1
Frame rate : 23.976 fps
Color space : YUV
Chroma subsampling : 4:2:0
Bit depth : 8 bits
Scan type : Progressive
Bits/(Pixel*Frame) : 0.365
Stream size : 4.00 GiB (78%)
Writing library : x264 core 132 r2310 76a5c3a
Encoding settings : cabac=1 / ref=5 / deblock=1:0:0 / analyse=0x3:0x113 / me=umh / subme=9 / psy=1 / psy_rd=1.00:0.00 / mixed_ref=1 / me_range=32 / chroma_me=1 / trellis=2 / 8x8dct=1 / cqm=0 / deadzone=21,11 / fast_pskip=0 / chroma_qp_offset=-2 / threads=12 / lookahead_threads=1 / sliced_threads=0 / nr=0 / decimate=1 / interlaced=0 / bluray_compat=0 / constrained_intra=0 / bframes=3 / b_pyramid=2 / b_adapt=2 / b_bias=0 / direct=1 / weightb=1 / open_gop=0 / weightp=0 / keyint=230 / keyint_min=23 / scenecut=40 / intra_refresh=0 / rc_lookahead=50 / rc=2pass / mbtree=1 / bitrate=6000 / ratetol=1.0 / qcomp=0.60 / qpmin=0 / qpmax=69 / qpstep=4 / cplxblur=20.0 / qblur=0.5 / vbv_maxrate=40000 / vbv_bufsize=30000 / nal_hrd=none / ip_ratio=1.40 / aq=1:1.00
Language : English
Color primaries : BT.709-5, BT.1361, IEC 61966-2-4, SMPTE RP177
Transfer characteristics : BT.709-5, BT.1361
Matrix coefficients : BT.709-5, BT.1361, IEC 61966-2-4 709, SMPTE RP177

Audio
ID : 2
Format : DTS
Format/Info : Digital Theater Systems
Codec ID : A_DTS
Duration : 1h 37mn
Bit rate mode : Constant
Bit rate : 1 510 Kbps
Channel(s) : 6 channels
Channel positions : Front: L C R, Side: L R, LFE
Sampling rate : 48.0 KHz
Bit depth : 24 bits
Compression mode : Lossy
Stream size : 1.03 GiB (20%)
Title : DTS
Language : English

Text #1
ID : 3
Format : UTF-8
Codec ID : S_TEXT/UTF8
Codec ID/Info : UTF-8 Plain Text
Language : English

Text #2
ID : 4
Format : UTF-8
Codec ID : S_TEXT/UTF8
Codec ID/Info : UTF-8 Plain Text
Title : SDH
Language : English

Menu
00:00:00.000 : en:00:00:00.000
00:09:02.333 : en:00:09:02.333
00:16:12.805 : en:00:16:12.805
00:26:24.958 : en:00:26:24.958
00:35:18.033 : en:00:35:18.033
00:46:34.750 : en:00:46:34.750
00:57:17.726 : en:00:57:17.726
01:04:26.279 : en:01:04:26.279
01:09:44.389 : en:01:09:44.389
01:14:10.571 : en:01:14:10.571
01:22:05.003 : en:01:22:05.003
01:29:02.254 : en:01:29:02.254





Feel free to contact me when links are dead


Links


http://uploaded.net/file/2ozt16vn/hooasxs.part01.rar
http://uploaded.net/file/0s50ezdd/hooasxs.part02.rar
http://uploaded.net/file/gvkxy8vm/hooasxs.part03.rar
http://uploaded.net/file/uy48fnr7/hooasxs.part04.rar
http://uploaded.net/file/k812zvzk/hooasxs.part05.rar
http://uploaded.net/file/1eq7ef09/hooasxs.part06.rar
http://uploaded.net/file/xg60j4nt/hooasxs.part07.rar
http://uploaded.net/file/nyt3kdg2/hooasxs.part08.rar
http://uploaded.net/file/w1vy7ktf/hooasxs.part09.rar
http://uploaded.net/file/u6eu7lg9/hooasxs.part10.rar
http://uploaded.net/file/pjtcjwg5/hooasxs.part11.rar
http://uploaded.net/file/j5siu95u/hooasxs.part12.rar
http://uploaded.net/file/poeto80i/hooasxs.part13.rar

http://rapidgator.net/file/241c1f83a0ff92b44253fe9a92ce32de/hooasxs.part01.rar
http://rapidgator.net/file/03522e205e517fdcf7a5a4083d3ba0ca/hooasxs.part02.rar
http://rapidgator.net/file/9990c9611d16c0076ff318cab829c9ee/hooasxs.part03.rar
http://rapidgator.net/file/7891eab7b608e9d247555e670793cf4a/hooasxs.part04.rar
http://rapidgator.net/file/431542c3482e50521e78d9574778ac68/hooasxs.part05.rar
http://rapidgator.net/file/761fe7edf2bba798af3ecedba5f2dfd8/hooasxs.part06.rar
http://rapidgator.net/file/f7c787af49d188c5f72d88754643152a/hooasxs.part07.rar
http://rapidgator.net/file/c56be8d772a8a603087f66e96a4fef18/hooasxs.part08.rar
http://rapidgator.net/file/40a936a7916b2261fcf04291f4ad165d/hooasxs.part09.rar
http://rapidgator.net/file/415aef0cc29e50a806555cc3d82fc6cc/hooasxs.part10.rar
http://rapidgator.net/file/0c5e906a234cf828889d1beb7ac0c561/hooasxs.part11.rar
http://rapidgator.net/file/43c1fc597b56db7d67d374d630937d6b/hooasxs.part12.rar
http://rapidgator.net/file/8a0f57e3db6de326b27e1bfc8ad9c970/hooasxs.part13.rar

ADVERTISING » Free Fast Download! « ADVERTISING


Posted By: kaifaz Date: 16 May 2013 00:08:12
Hi, I'm afraid that the RGator links are dead, please re-upload them. Thanks a lot!!