Loading...

Absolute Deception (2013)

Posted By : AvaxAnoosh | Date : 04 Jun 2013 11:23:40 | Comments : 0 |
|



Absolute Deception (2013)
Language: English | Subs: None
DVDRip | 1h 32mn | AVI | XviD @933 Kbps 23.976 fps | 624 x 352 | MP3 @128 Kbps 2chnls 48kHz | 705 MB
DVDRip | 1h 32mn | AVI | XviD @1,678 Kbps 23.976 fps | 720 x 400 | AC3 @448 Kbps 6chnls 48kHz | 1.4 GB
Genre: Action | Country: USA

A widowed reporter recruits the help of a federal agent to investigate her late husband's secrets, but the two become the target of unknown attackers.

IMDb: http://www.imdb.com/title/tt2179226/
Director: Brian Trenchard-Smith
Stars: Cuba Gooding Jr., Emmanuelle Vaugier, Evert McQueen

MediaInfo - 705 MB
General
Complete name : Absolute.Deception.2013.DVDRip.XviD-PTpOWeR.avi
Format : AVI
Format/Info : Audio Video Interleave
File size : 707 MiB
Duration : 1h 32mn
Overall bit rate : 1 074 Kbps

Video
ID : 0
Format : MPEG-4 Visual
Format profile : Simple@L3
Format settings, BVOP : No
Format settings, QPel : No
Format settings, GMC : No warppoints
Format settings, Matrix : Default (H.263)
Codec ID : XVID
Codec ID/Hint : XviD
Duration : 1h 32mn
Source duration : 1h 32mn
Bit rate : 933 Kbps
Width : 624 pixels
Height : 352 pixels
Display aspect ratio : 16:9
Frame rate : 23.976 fps
Color space : YUV
Chroma subsampling : 4:2:0
Bit depth : 8 bits
Scan type : Progressive
Compression mode : Lossy
Bits/(Pixel*Frame) : 0.177
Stream size : 614 MiB (87%)
Writing library : XviD 1.1.2 (UTC 2006-11-01)

Audio
ID : 1
Format : MPEG Audio
Format version : Version 1
Format profile : Layer 3
Mode : Joint stereo
Mode extension : MS Stereo
Codec ID : 55
Codec ID/Hint : MP3
Duration : 1h 32mn
Bit rate mode : Constant
Bit rate : 128 Kbps
Channel(s) : 2 channels
Sampling rate : 48.0 KHz
Compression mode : Lossy
Stream size : 84.2 MiB (12%)
Alignment : Split accross interleaves
Interleave, duration : 24 ms (0.58 video frame)
Writing library : LAME3.98


MediaInfo - 1.4 GB
General
Complete name : Absolute.Deception.2013.DVDRip.XviD.AC3-PTpOWeR.avi
Format : AVI
Format/Info : Audio Video Interleave
File size : 1.37 GiB
Duration : 1h 32mn
Overall bit rate : 2 136 Kbps

Video
ID : 0
Format : MPEG-4 Visual
Format profile : Simple@L3
Format settings, BVOP : No
Format settings, QPel : No
Format settings, GMC : No warppoints
Format settings, Matrix : Default (H.263)
Codec ID : XVID
Codec ID/Hint : XviD
Duration : 1h 32mn
Source duration : 1h 32mn
Bit rate : 1 678 Kbps
Width : 720 pixels
Height : 400 pixels
Display aspect ratio : 16:9
Frame rate : 23.976 fps
Color space : YUV
Chroma subsampling : 4:2:0
Bit depth : 8 bits
Scan type : Progressive
Compression mode : Lossy
Bits/(Pixel*Frame) : 0.243
Stream size : 1.08 GiB (79%)
Writing library : XviD 1.1.2 (UTC 2006-11-01)

Audio
ID : 1
Format : AC-3
Format/Info : Audio Coding 3
Mode extension : CM (complete main)
Format settings, Endianness : Big
Codec ID : 2000
Duration : 1h 32mn
Bit rate mode : Constant
Bit rate : 448 Kbps
Channel(s) : 6 channels
Channel positions : Front: L C R, Side: L R, LFE
Sampling rate : 48.0 KHz
Bit depth : 16 bits
Compression mode : Lossy
Stream size : 295 MiB (21%)
Alignment : Aligned on interleaves
Interleave, duration : 32 ms (0.77 video frame)



Screenshot:

DVDRip - 705 MB:




DVDRip - 1.4 GB:




No Mirrors Please!

Private Message me If the Links are Dead.


Visit My Blog For All Latest Movies!

Download:

DVDRip - 705 MB:

Uploaded:

101.part2.rar
101.part3.rar
101.part1.rar

Rapidgator:

101.part2.rar
101.part1.rar
101.part3.rar

DVDRip - 1.4 GB:

Uploaded:

102.part1.rar
102.part4.rar
102.part6.rar
102.part2.rar
102.part3.rar
102.part5.rar

Rapidgator:

102.part4.rar
102.part1.rar
102.part3.rar
102.part5.rar
102.part2.rar
102.part6.rar

Password: Anoosh

Links Interchangeable.

3% Recovery Record Added.

ADVERTISING » Click here to download Ebooks/Magazines for free « ADVERTISING


No comments for the news