Loading...

Brother (Brat) / Брат (1997)

Posted By : a_l_chemist | Date : 05 Feb 2011 02:56:51 | Comments : 0 |
|


Brother

Brother (Brat) / Брат (1997)
HDDVDRip 720p | MKV | AVC | 1272x720, 23,976 fps, 3521 kbps | 01:39:36 | 2,91 GB
Russian: AC3, 6ch, 48kHz, 384 kbps | Subs: English, Russian
Genre: Crime | Drama

Brother (Russian: Брат, translit. Brat) is a 1997 Russian crime film directed by Aleksei Balabanov and starring Sergei Bodrov, Jr. The film also stars Viktor Sukhorukov, Svetlana Pismichenko and Yuriy Kuznetsov.

Plot: The film begins when Danila Bagrov (Bodrov), a former conscript after demobilisation, travels to St. Petersburg to seek out his older brother Viktor, who his mother is confident will help him make a living. His brother, Viktor (criminal nickname Tatarin), is an accomplished hitman who himself is growing too independent for his role and irritating his mob boss Krugly (literally: "Round"). So when the Krugly hires Viktor to assassinate a Chechen mafia boss, Viktor offers the job to Danila.
Although he claims that his Army service was spent at headquarters as a clerk, Danila carries the task out professionally. However, Krugly's hitmen who have been sent to take out Viktor upon completion follow Danila and injure him as he flees the scene in a cargo tram. After helping him, the driver of the tram, Sveta, who is married to an abusive husband, pursues an affair with Danila.
Simultaneously, Danila befriends several people from a very wide urban spectrum: Kat, an energetic drug addict, and Nemets (literally "German") Hoffman who is a kind homeless man, whom Danila saves from a racketeer and later helps to find a home and treats him when injured.
After the first job, Viktor once again offers Danila a new one that he must carry out with two of Krugly's hitmen. Upon raiding the apartment, it turns out their main target is away and as they wait first a guest to a party a floor above becomes a hostage, and the famous Rock music star Vyacheslav Butusov (who plays himself), of whom Danila is very fond almost ends in a similar situation. Afterwards Danila decides to save the radio director, Butusov's friend and kills the two assassins after they kill another hostage. Once again Nemets helps Danila.
By this time Krugly becomes frustrated that all his jobs with Tatarin end in his men being killed. So instead he raids Viktor's home who gives the details of his brother. Danila is first unsuccessfully ambushed near his home by a Krot (literally Mole), after that fails Krugly raids Sveta's communal apartment and his men assault and rape her. Upon returning and seeing Sveta's face Danila becomes enraged after realizing that it was not her husband but his assassins that are responsible.
--from wikipedia


IMDb





MediaInfo log
General
Complete name : F:\Movies\Brother\Brother.mkv
Format : Matroska
File size : 2.77 GiB
Duration : 1h 39mn
Overall bit rate : 3 984 Kbps
Movie name : Brother
Encoded date : UTC 2011-02-03 21:37:15
Writing application : mkvmerge v4.3.0 ('Escape from the Island') сборка от Sep 5 2010 10:30:51
Writing library : libebml v1.0.0 + libmatroska v1.0.0

Video
ID : 1
Format : AVC
Format/Info : Advanced Video Codec
Format profile : High@L4.1
Format settings, CABAC : Yes
Format settings, ReFrames : 7 frames
Muxing mode : Header stripping
Codec ID : V_MPEG4/ISO/AVC
Duration : 1h 39mn
Bit rate : 3 521 Kbps
Width : 1 272 pixels
Height : 720 pixels
Display aspect ratio : 16:9
Frame rate : 23.976 fps
Color space : YUV
Chroma subsampling : 4:2:0
Bit depth : 8 bits
Scan type : Progressive
Bits/(Pixel*Frame) : 0.160
Stream size : 2.45 GiB (88%)
Title : Brother
Writing library : x264 core 104 r1698 c41b8f0
Encoding settings : cabac=1 / ref=7 / deblock=1:-2:-2 / analyse=0x3:0x113 / me=umh / subme=9 / psy=1 / psy_rd=1.20:0.00
mixed_ref=1 / me_range=24 / chroma_me=1 / trellis=2 / 8x8dct=1 / cqm=0 / deadzone=21,11 / fast_pskip=0 / chroma_qp_offset=-2 / threads=3
sliced_threads=0 / nr=0 / decimate=1 / interlaced=0 / constrained_intra=0 / bframes=6 / b_pyramid=2 / b_adapt=2 / b_bias=0 / direct=1
weightb=1 / open_gop=0 / weightp=2 / keyint=250 / keyint_min=23 / scenecut=40 / intra_refresh=0 / rc_lookahead=50 / rc=crf / mbtree=1
crf=18.0 / qcomp=0.60 / qpmin=10 / qpmax=51 / qpstep=4 / vbv_maxrate=50000 / vbv_bufsize=50000 / crf_max=0.0 / ip_ratio=1.40
aq=1:1.00 / nal_hrd=none
Language : Russian

Audio
ID : 2
Format : AC-3
Format/Info : Audio Coding 3
Mode extension : CM (complete main)
Muxing mode : Header stripping
Codec ID : A_AC3
Duration : 1h 39mn
Bit rate mode : Constant
Bit rate : 384 Kbps
Channel(s) : 6 channels
Channel positions : Front: L C R, Side: L R, LFE
Sampling rate : 48.0 KHz
Bit depth : 16 bits
Stream size : 274 MiB (10%)
Title : Russian
Language : Russian

Text #1
ID : 3
Format : UTF-8
Codec ID : S_TEXT/UTF8
Codec ID/Info : UTF-8 Plain Text
Title : English
Language : English

Text #2
ID : 4
Format : UTF-8
Codec ID : S_TEXT/UTF8
Codec ID/Info : UTF-8 Plain Text
Title : Russian
Language : Russian


ADVERTISING » Click here to download Ebooks/Magazines for free « ADVERTISING


No comments for the news