Loading...

Bottled Life: Nestle's Business with Water (2012)

Posted By : ParRus | Date : 15 Jun 2013 12:32:09 | Comments : 5 |
|



Bottled Life: Nestle's Business with Water (2012)
HDTV | English, German, French | MKV | 720 x 576 | AVC ~2904 Kbps | 25 fps
AC-3 | 256 kbps | 48.0 KHz | 2 channels | 1h 29mn | 2.47 GB
Genre: Documentary, Adventure, Drama

Do you know how to turn ordinary water into a billion-dollar business? In Switzerland there's a company which has developed the art to perfection - Nestlé. This company dominates the global business in bottled water. Swiss journalist Res Gehringer has investigated this money-making phenomena. Nestlé refused to cooperate, on the pretext that it was "the wrong film at the wrong time". So Gehringer went on a journey of exploration, researching the story in the USA, Nigeria and Pakistan. His journey into the world of bottled water reveals the schemes and strategies of the most powerful food and beverage company on our planet.

Director: Urs Schnell
IMDB info

MediaInfo
General
Complete name : Bottled.Life.Nestle.s.Business.with.Water.2012.mkv
Format : Matroska
Format version : Version 2
File size : 2.47 GiB
Duration : 1h 29mn
Overall bit rate : 3 942 Kbps
Writing application : HandBrake 5107svn
Writing library : libmkv 0.6.5
Video #1
ID : 1
Format : AVC
Format/Info : Advanced Video Codec
Format profile : High@L3.1
Format settings, CABAC : Yes
Format settings, ReFrames : 9 frames
Codec ID : V_MPEG4/ISO/AVC
Duration : 1h 29mn
Bit rate : 2 904 Kbps
Width : 720 pixels
Height : 576 pixels
Display aspect ratio : 16:9
Frame rate mode : Variable
Frame rate : 25.000 fps
Standard : PAL
Color space : YUV
Chroma subsampling : 4:2:0
Bit depth : 8 bits
Scan type : Progressive
Bits/(Pixel*Frame) : 0.280
Stream size : 1.82 GiB (74%)
Writing library : x264 core 128
Encoding settings : cabac=1 / ref=9 / deblock=1:-2:-2 / analyse=0x3:0x133 / me=umh / subme=9 / psy=1 / psy_rd=1.00:0.00 / mixed_ref=1 / me_range=24 / chroma_me=1 / trellis=2 / 8x8dct=1 / cqm=0 / deadzone=21,11 / fast_pskip=0 / chroma_qp_offset=-2 / threads=3 / lookahead_threads=1 / sliced_threads=0 / nr=0 / decimate=1 / interlaced=0 / bluray_compat=0 / constrained_intra=0 / bframes=6 / b_pyramid=2 / b_adapt=2 / b_bias=0 / direct=3 / weightb=1 / open_gop=0 / weightp=2 / keyint=250 / keyint_min=25 / scenecut=40 / intra_refresh=0 / rc_lookahead=50 / rc=crf / mbtree=1 / crf=18.8 / qcomp=0.60 / qpmin=4 / qpmax=69 / qpstep=4 / ip_ratio=1.40 / aq=1:1.20
Language : English
Color primaries : BT.470-6 System B, BT.470-6 System G, BT.601-6 625, BT.1358 625, BT.1700 625 PAL, BT.1700 625 SECAM
Transfer characteristics : BT.709-5, BT.1361
Matrix coefficients : BT.601-6 525, BT.1358 525, BT.1700 NTSC, SMPTE 170M
Audio #2
ID : 2
Format : AC-3
Format/Info : Audio Coding 3
Mode extension : CM (complete main)
Codec ID : A_AC3
Duration : 1h 29mn
Bit rate mode : Constant
Bit rate : 448 Kbps
Channel(s) : 6 channels
Channel positions : Front: L C R, Side: L R, LFE
Sampling rate : 48.0 KHz
Bit depth : 16 bits
Compression mode : Lossy
Stream size : 287 MiB (11%)
Language : English
Audio #3
ID : 3
Format : AC-3
Format/Info : Audio Coding 3
Mode extension : CM (complete main)
Codec ID : A_AC3
Duration : 1h 29mn
Bit rate mode : Constant
Bit rate : 256 Kbps
Channel(s) : 2 channels
Channel positions : Front: L R
Sampling rate : 48.0 KHz
Bit depth : 16 bits
Compression mode : Lossy
Stream size : 164 MiB (6%)
Language : German
Audio #4
ID : 4
Format : AC-3
Format/Info : Audio Coding 3
Mode extension : CM (complete main)
Codec ID : A_AC3
Duration : 1h 29mn
Bit rate mode : Constant
Bit rate : 256 Kbps
Channel(s) : 2 channels
Channel positions : Front: L R
Sampling rate : 48.0 KHz
Bit depth : 16 bits
Compression mode : Lossy
Stream size : 164 MiB (6%)
Language : French
Text #5
ID : 5
Format : VobSub
Codec ID : S_VOBSUB
Codec ID/Info : The same subtitle format used on DVDs
Language : German
Text #6
ID : 6
Format : VobSub
Codec ID : S_VOBSUB
Codec ID/Info : The same subtitle format used on DVDs
Language : French
Text #7
ID : 7
Format : VobSub
Codec ID : S_VOBSUB
Codec ID/Info : The same subtitle format used on DVDs
Language : English
Screenshots





For more, Visit my AH-blog


ADVERTISING » Click here to download Ebooks/Magazines for free « ADVERTISING


Posted By: OverThere Date: 15 Jun 2013 18:36:51
Thanks Much!!!
Posted By: Gaetan Dugan Date: 15 Jun 2013 18:54:48
Does this documentary contain spanish or english subtitles?
thanks.
Posted By: ParRus Date: 15 Jun 2013 20:22:54
2 Gaetan Dugan:
unfortunately this documental haven't any subs (
Posted By: Gaetan Dugan Date: 15 Jun 2013 21:58:22
What a pity...
thanks anyways, ParRus
Posted By: Antipop Date: 16 Jul 2013 12:33:35
Thanks for sharing.