Loading...

National Geographic - Sex: How It Works (2013)

Posted By : notbanned | Date : 19 Jul 2013 06:32:40 | Comments : 0 |
|


National Geographic - Sex: How It Works (2013)

National Geographic - Sex: How It Works (2013)
HDTV XviD | 640x360 | .AVI/XviD @ 1268 Kbps | 1h 29mn | Audio: English MP3 128 kbps, 2 channels | Subs: None | 907 MiB
HDTV 720p | 1280x720 | .MKV/AVC @ 3582 Kbps | 1h 29mn | Audio: English AC3 384 kbps, 6 channels | Subs: None | 2.54 GiB
Genre: Documentary

We've been doing it since we first walked the Earth. It gives us pleasure and it gives us life. But how much do you know about how sex works? Now, National Geographic Channel takes a fascinating look at one of the world's most popular pastimes: sex. Through gripping real-life stories and simulations, we journey from first times to playing the field, and all the way to humankind's ultimate goal, procreation. We'll learn anything and everything you've ever wondered about sex.

More info

MediaInfo HDTV XviD

General
Complete name : National.Geographic.Sex.How.It.Works.HDTV.XviD.avi
Format : AVI
Format/Info : Audio Video Interleave
File size : 907 MiB
Duration : 1h 29mn
Overall bit rate mode : Variable
Overall bit rate : 1 410 Kbps

Video
ID : 0
Format : MPEG-4 Visual
Format profile : Advanced Simple@L5
Format settings, BVOP : 2
Format settings, QPel : No
Format settings, GMC : No warppoints
Format settings, Matrix : Default (H.263)
Codec ID : XVID
Codec ID/Hint : XviD
Duration : 1h 29mn
Bit rate : 1 268 Kbps
Width : 640 pixels
Height : 360 pixels
Display aspect ratio : 16:9
Frame rate : 29.970 fps
Color space : YUV
Chroma subsampling : 4:2:0
Bit depth : 8 bits
Scan type : Progressive
Compression mode : Lossy
Bits/(Pixel*Frame) : 0.184
Stream size : 816 MiB (90%)
Writing library : XviD 64

Audio
ID : 1
Format : MPEG Audio
Format version : Version 1
Format profile : Layer 3
Mode : Joint stereo
Mode extension : MS Stereo
Codec ID : 55
Codec ID/Hint : MP3
Duration : 1h 29mn
Bit rate mode : Variable
Bit rate : 128 Kbps
Channel(s) : 2 channels
Sampling rate : 48.0 KHz
Compression mode : Lossy
Stream size : 82.4 MiB (9%)
Alignment : Aligned on interleaves
Interleave, duration : 24 ms (0.72 video frame)
Interleave, preload duration : 178 ms

MediaInfo HDTV 720p

General
Unique ID : 219942775377965628647156092554974729319 (0xA577700E1A8E94E9B9983DE186961467)
Complete name : national.geographic.sex.how.it.works.720p.mkv
Format : Matroska
Format version : Version 4 / Version 2
File size : 2.54 GiB
Duration : 1h 29mn
Overall bit rate : 4 047 Kbps
Encoded date : UTC 2013-06-29 23:59:02
Writing application : mkvmerge v6.3.0 ('You can't stop me!') built on Jun 28 2013 20:09:41
Writing library : libebml v1.3.0 + libmatroska v1.4.0

Video
ID : 1
Format : AVC
Format/Info : Advanced Video Codec
Format profile : High@L4.1
Format settings, CABAC : Yes
Format settings, ReFrames : 5 frames
Codec ID : V_MPEG4/ISO/AVC
Duration : 1h 29mn
Bit rate : 3 582 Kbps
Width : 1 280 pixels
Height : 720 pixels
Display aspect ratio : 16:9
Frame rate : 29.970 fps
Color space : YUV
Chroma subsampling : 4:2:0
Bit depth : 8 bits
Scan type : Progressive
Bits/(Pixel*Frame) : 0.130
Stream size : 2.25 GiB (89%)
Writing library : x264 core 133 r2334 a3ac64b
Encoding settings : cabac=1 / ref=5 / deblock=1:0:0 / analyse=0x3:0x113 / me=umh / subme=8 / psy=1 / psy_rd=1.00:0.00 / mixed_ref=1 / me_range=16 / chroma_me=1 / trellis=1 / 8x8dct=1 / cqm=0 / deadzone=21,11 / fast_pskip=1 / chroma_qp_offset=-2 / threads=3 / lookahead_threads=1 / sliced_threads=0 / nr=0 / decimate=1 / interlaced=0 / bluray_compat=0 / constrained_intra=0 / bframes=3 / b_pyramid=2 / b_adapt=2 / b_bias=0 / direct=3 / weightb=1 / open_gop=0 / weightp=2 / keyint=250 / keyint_min=25 / scenecut=40 / intra_refresh=0 / rc_lookahead=50 / rc=crf / mbtree=1 / crf=20.0 / qcomp=0.60 / qpmin=0 / qpmax=69 / qpstep=4 / ip_ratio=1.40 / aq=1:1.00
Default : Yes
Forced : No

Audio
ID : 2
Format : AC-3
Format/Info : Audio Coding 3
Mode extension : CM (complete main)
Format settings, Endianness : Big
Codec ID : A_AC3
Duration : 1h 29mn
Bit rate mode : Constant
Bit rate : 384 Kbps
Channel(s) : 6 channels
Channel positions : Front: L C R, Side: L R, LFE
Sampling rate : 48.0 KHz
Bit depth : 16 bits
Compression mode : Lossy
Stream size : 247 MiB (9%)
Default : Yes
Forced : No

Text
ID : 3
Format : UTF-8
Codec ID : S_TEXT/UTF8
Codec ID/Info : UTF-8 Plain Text
Default : Yes
Forced : No


Screenshots:






ADVERTISING » Very Fast Download! « ADVERTISING


No comments for the news