Loading...

PBS - Boom Behind the Bakken (2013)

Posted By : notbanned | Date : 24 Sep 2013 14:02:19 | Comments : 0 |
|


PBS - Boom Behind the Bakken (2013)

PBS - Boom Behind the Bakken (2013)
PDTV | 720x404 | .MP4/AVC @ 1105 Kbps | 55mn 12s | Audio: English AAC 288 kbps, 2 channels | Subs: English | 554 MiB
Genre: Documentary

Because of advanced new technology, a second oil boom has hit Western North Dakota and Eastern Montana. This Bakken formation has impacted more than just the oil industries. Towns around the Bakken oil formation are experience sudden growth in population. This program features those besieged by these new changes as well as those who are capitalizing on the oil boom. RV’s and man camps dot the sides of the roads that connect one town to another. New residents of these once small-towns battle for a place to call home. Some locals are able to capitalize off the one thing that brings all these different people together. Oil. Businesses are hiring and towns are bursting at the seams. This is the Boom, Behind the Bakken.


MediaInfo

General
Complete name : PBS.Boom.Behind.the.Bakken.mp4
Format : MPEG-4
Format profile : Base Media
Codec ID : isom
File size : 554 MiB
Duration : 55mn 12s
Overall bit rate mode : Variable
Overall bit rate : 1 403 Kbps
Encoded date : UTC 2013-08-21 02:26:30
Tagged date : UTC 2013-08-21 02:26:30

Video
ID : 1
Format : AVC
Format/Info : Advanced Video Codec
Format profile : High@L3.0
Format settings, CABAC : Yes
Format settings, ReFrames : 6 frames
Codec ID : avc1
Codec ID/Info : Advanced Video Coding
Duration : 55mn 12s
Bit rate : 1 105 Kbps
Maximum bit rate : 6 797 Kbps
Width : 720 pixels
Height : 404 pixels
Display aspect ratio : 16:9
Frame rate mode : Constant
Frame rate : 29.970 fps
Color space : YUV
Chroma subsampling : 4:2:0
Bit depth : 8 bits
Scan type : Progressive
Bits/(Pixel*Frame) : 0.127
Stream size : 436 MiB (79%)
Writing library : x264 core 130 r2273 b3065e6
Encoding settings : cabac=1 / ref=6 / deblock=1:0:0 / analyse=0x3:0x113 / me=umh / subme=10 / psy=1 / psy_rd=2.00:1.00 / mixed_ref=1 / me_range=24 / chroma_me=1 / trellis=2 / 8x8dct=1 / cqm=0 / deadzone=21,11 / fast_pskip=1 / chroma_qp_offset=-4 / threads=3 / lookahead_threads=1 / sliced_threads=0 / nr=0 / decimate=1 / interlaced=0 / bluray_compat=0 / constrained_intra=0 / bframes=9 / b_pyramid=2 / b_adapt=2 / b_bias=0 / direct=1 / weightb=1 / open_gop=0 / weightp=1 / keyint=300 / keyint_min=30 / scenecut=40 / intra_refresh=0 / rc_lookahead=30 / rc=crf / mbtree=1 / crf=20.0 / qcomp=0.60 / qpmin=0 / qpmax=69 / qpstep=4 / ip_ratio=1.40 / aq=1:1.00
Encoded date : UTC 2013-08-19 08:37:33
Tagged date : UTC 2013-08-21 02:26:35
Color primaries : BT.601-6 525, BT.1358 525, BT.1700 NTSC, SMPTE 170M
Transfer characteristics : BT.709-5, BT.1361
Matrix coefficients : BT.601-6 525, BT.1358 525, BT.1700 NTSC, SMPTE 170M

Audio
ID : 2
Format : AAC
Format/Info : Advanced Audio Codec
Format profile : LC
Codec ID : 40
Duration : 55mn 12s
Bit rate mode : Variable
Bit rate : 288 Kbps
Maximum bit rate : 441 Kbps
Channel(s) : 2 channels
Channel positions : Front: L R
Sampling rate : 48.0 KHz
Compression mode : Lossy
Delay relative to video : -10s 10ms
Stream size : 116 MiB (21%)
Language : English
Encoded date : UTC 2013-08-19 08:37:33
Tagged date : UTC 2013-08-21 02:26:35

Text
ID : 3
Format : Timed text
Codec ID : tx3g
Duration : 55mn 12s
Bit rate mode : Variable
Bit rate : 147 bps
Delay relative to video : -10s 10ms
Stream size : 59.5 KiB (0%)
Language : English
Encoded date : UTC 2013-08-21 02:26:35
Tagged date : UTC 2013-08-21 02:26:35


Screenshots:






ADVERTISING » Click here to download Ebooks/Magazines for free « ADVERTISING


No comments for the news