Loading...

National Geographic - Nazi Underworld Hitlers Henchman (2013)

Posted By : vivid23 | Date : 27 May 2013 12:35:28 | Comments : 0 |
|



National Geographic - Nazi Underworld Hitlers Henchman (2013)
HDTV | 1280x720 | MKV/x264 @ 2809 Kbps | 44mn | Audio: English AC3 448 kbps, 6 channels | Subs: None | 1.04 GB
Genre: Documentary

Heinrich Himmler: SS national leader, chief of police, minister of the interior, and commander-in-chief Hitlers most powerful disciple remains an enigma even today. Why was he interested in the occult? What role did his mysterious lover play, with whom he led a double-life with for years? And was Himmler rather than Hitler responsible for ordering the mass murder of Jews? This film investigates new insights into this decisive question and seeks to unravel the mystery surrounding the person Heinrich Himmler.

More info

Mediainfo log
Video
ID : 1
Format : AVC
Format/Info : Advanced Video Codec
Format profile : High@L4.1
Format settings, CABAC : Yes
Format settings, ReFrames : 5 frames
Format settings, GOP : M=4, N=32
Codec ID : V_MPEG4/ISO/AVC
Duration : 44mn 59s
Bit rate : 2 809 Kbps
Width : 1 280 pixels
Height : 720 pixels
Display aspect ratio : 16:9
Frame rate : 25.000 fps
Color space : YUV
Chroma subsampling : 4:2:0
Bit depth : 8 bits
Scan type : Progressive
Bits/(Pixel*Frame) : 0.122
Stream size : 904 MiB (85%)
Writing library : x264 core 132 r2309 3b1f1f7
Encoding settings : cabac=1 / ref=5 / deblock=1:0:0 / analyse=0x3:0x113 / me=umh / subme=8 / psy=1 / psy_rd=1.00:0.00 / mixed_ref=1 / me_range=16 / chroma_me=1 / trellis=1 / 8x8dct=1 / cqm=0 / deadzone=21,11 / fast_pskip=1 / chroma_qp_offset=-2 / threads=6 / lookahead_threads=1 / sliced_threads=0 / nr=0 / decimate=1 / interlaced=0 / bluray_compat=0 / constrained_intra=0 / bframes=3 / b_pyramid=2 / b_adapt=2 / b_bias=0 / direct=3 / weightb=1 / open_gop=0 / weightp=2 / keyint=250 / keyint_min=25 / scenecut=40 / intra_refresh=0 / rc_lookahead=50 / rc=crf / mbtree=1 / crf=21.0 / qcomp=0.60 / qpmin=0 / qpmax=69 / qpstep=4 / ip_ratio=1.40 / aq=1:1.00
Matrix coefficients : BT.709-5, BT.1361, IEC 61966-2-4 709, SMPTE RP177

Audio
ID : 2
Format : AC-3
Format/Info : Audio Coding 3
Mode extension : CM (complete main)
Codec ID : A_AC3
Duration : 44mn 59s
Bit rate mode : Constant
Bit rate : 448 Kbps
Channel(s) : 6 channels
Channel positions : Front: L C R, Side: L R, LFE
Sampling rate : 48.0 KHz
Bit depth : 16 bits
Compression mode : Lossy
Stream size : 144 MiB (13%)
Language : English





ADVERTISING » Free Fast Download! « ADVERTISING


No comments for the news