Loading...

Natural World - Heligan: Secrets of the Lost Gardens (2012)

Posted By : Polik88 | Date : 24 Apr 2012 18:15:52 | Comments : 1 |
|



Natural World - Heligan: Secrets of the Lost Gardens (2012)
HDTV | English | MKV (H264) 25 fps 2853 Kbps | 1280x720 | AC3 192 Kbps 48.0 khz | 58mn 34s | 1.17 GB
Genre: Documentary

Looking at the secret lives of the wildlife in one of Britain's favourite gardens. Shot by Charlie Hamilton-James, this film follows various animals, from the family of foxes that play after hours in the pleasure gardens, to the toads in the Italian garden and the badgers that clear up the tea rooms at night. Set against the background of the gardening year, these stories reveal life behind the scenes at Heligan.

MediaInfo:
General
Complete name : Natural World - Heligan Secrets of the Lost Gardens (2012).mkv
Format : Matroska
File size : 1.17 GiB
Duration : 58mn 34s
Overall bit rate : 2 852 Kbps
Encoded date : UTC 2012-04-12 20:37:44
Writing application : mkvmerge v4.3.0 ('Escape from the Island') built on Sep 5 2010 10:30:51
Writing library : libebml v1.0.0 + libmatroska v1.0.0

Video
ID : 1
Format : AVC
Format/Info : Advanced Video Codec
Format profile : High@L4.1
Format settings, CABAC : Yes
Format settings, ReFrames : 5 frames
Muxing mode : Container profile=Unknown@4.1
Codec ID : V_MPEG4/ISO/AVC
Duration : 58mn 34s
Bit rate : 2 603 Kbps
Width : 1 280 pixels
Height : 720 pixels
Display aspect ratio : 16:9
Frame rate : 25.000 fps
Resolution : 8 bits
Colorimetry : 4:2:0
Scan type : Progressive
Bits/(Pixel*Frame) : 0.113
Stream size : 1.07 GiB (91%)
Writing library : x264 core 122 r2184 5c85e0a
Encoding settings : cabac=1 / ref=5 / deblock=1:-1:-1 / analyse=0x3:0x113 / me=umh / subme=8 / psy=1 / psy_rd=1.00:0.15 / mixed_ref=1 / me_range=16 / chroma_me=1 / trellis=1 / 8x8dct=1 / cqm=0 / deadzone=21,11 / fast_pskip=1 / chroma_qp_offset=-3 / threads=18 / sliced_threads=0 / nr=0 / decimate=1 / interlaced=0 / bluray_compat=0 / constrained_intra=0 / bframes=3 / b_pyramid=2 / b_adapt=2 / b_bias=0 / direct=3 / weightb=1 / open_gop=0 / weightp=2 / keyint=250 / keyint_min=25 / scenecut=40 / intra_refresh=0 / rc_lookahead=50 / rc=crf / mbtree=1 / crf=21.0 / qcomp=0.60 / qpmin=0 / qpmax=69 / qpstep=4 / ip_ratio=1.40 / aq=1:1.00

Audio
ID : 2
Format : AC-3
Format/Info : Audio Coding 3
Codec ID : A_AC3
Duration : 58mn 34s
Bit rate mode : Constant
Bit rate : 192 Kbps
Channel(s) : 2 channels
Channel positions : L R
Sampling rate : 48.0 KHz
Video delay : 30ms
Stream size : 80.4 MiB (7%)
Title : English

Screenshots




no mirrors please, Follow The Rules
Visit Polik88 Blog Here
no password

ADVERTISING » Very Fast Download! « ADVERTISING


Posted By: Mr. Green Date: 01 Feb 2013 16:25:24
Could you please repost? The links are down. Thanks