Loading...

National Geographic - King Of Coke: Living The High Life (2013)

Posted By : Polik88 | Date : 16 May 2013 16:39:24 | Comments : 0 |
|



National Geographic - King Of Coke: Living The High Life (2013)
PDTV | English | MP4 | 832x468 | AVC 1995 Kbps 25.000 fps | AAC 128 Kbps 48.0 khz | 44mn 59s | 685 MB
Genre: Documentary

Discover how a young dentist secretly built a cocaine empire across America that produced millions of dollars’ worth of revenue during the '80s.This is the true-crime story of the multimillion-dollar yuppie drug ring run by a then, twenty-six year old Larry Lavin and two of his classmates. In the high-flying 1980's, Larry Lavin was a clean-cut, Ivy-League-educated dentist living the good life in suburban Philadelphia. But, what his upper crust neighbours didn't know was that Lavin led a double life - one that would finally be exposed by a shocking narcotics investigation. Awash in sex, drugs and money, Lavin oversaw a cocaine conglomerate, buying and selling enough white powder to anesthetize thirteen Eastern seaboard states … until the FBI cracked the ring. How was he able to create such a well-oiled network? And what brought about his untimely downfall?

MediaInfo:
General
Complete name : N.G.King.Of.Coke.Living.The.High.Life.mp4
Format : MPEG-4
Format profile : Base Media
Codec ID : isom
File size : 685 MiB
Duration : 44mn 59s
Overall bit rate mode : Variable
Overall bit rate : 2 128 Kbps
Encoded date : UTC 2013-05-16 13:50:43
Tagged date : UTC 2013-05-16 13:50:43
Writing application : Lavf51.12.1

Video
ID : 1
Format : AVC
Format/Info : Advanced Video Codec
Format profile : High@L3.0
Format settings, CABAC : No
Format settings, ReFrames : 1 frame
Format settings, GOP : M=1, N=12
Codec ID : avc1
Codec ID/Info : Advanced Video Coding
Duration : 44mn 59s
Bit rate : 1 995 Kbps
Width : 832 pixels
Height : 468 pixels
Display aspect ratio : 16:9
Frame rate mode : Constant
Frame rate : 25.000 fps
Color space : YUV
Chroma subsampling : 4:2:0
Bit depth : 8 bits
Scan type : Progressive
Bits/(Pixel*Frame) : 0.205
Stream size : 642 MiB (94%)
Encoded date : UTC 2013-05-16 13:50:43
Tagged date : UTC 2013-05-16 13:50:43

Audio
ID : 2
Format : AAC
Format/Info : Advanced Audio Codec
Format profile : LC
Codec ID : 40
Duration : 44mn 59s
Bit rate mode : Variable
Bit rate : 128 Kbps
Channel(s) : 2 channels
Channel positions : Front: L R
Sampling rate : 48.0 KHz
Compression mode : Lossy
Stream size : 41.2 MiB (6%)
Encoded date : UTC 2013-05-16 13:50:43
Tagged date : UTC 2013-05-16 13:50:43

Screenshots




no mirrors please, Follow The Rules
Visit Polik88 Blog Here
no password

ADVERTISING » Click here to download Ebooks/Magazines for free « ADVERTISING


No comments for the news