Loading...

National Geographic - 21st Century Sex Slaves (2011)

Posted By : Polik88 | Date : 16 Jul 2012 21:52:09 | Comments : 0 |
|



National Geographic - 21st Century Sex Slaves (2011)
PDTV | English | AVI/XVID 25.000 fps 2186 Kbps | 720x416 | AC3 128 Kbps 48.0 khz | 44mn 56s | 746 MB
Genre: Documentary

Undercover investigators hunt down a ruthless multi-million-dollar trafficking ring that forces thousands of Asian women to be sex slaves. This lucrative business is run by ruthless gangs who target vulnerable women and force them to work on the streets
In Bangkok, where sex is one of the city’s biggest commodities, a crack team headed by investigator Steve Galster, attempts to bring down the leaders of a brutal trafficking ring who will stop at nothing to avoid capture.

MediaInfo:
General
Complete name : National.Geographic.21st.Century.Sex.Slaves.avi
Format : AVI
Format/Info : Audio Video Interleave
File size : 746 MiB
Duration : 44mn 56s
Overall bit rate : 2 321 Kbps
Writing application : VirtualDubMod 1.5.4.1 (build 2178/release)
Writing library : VirtualDubMod build 2178/release

Video
ID : 0
Format : MPEG-4 Visual
Format profile : Advanced Simple@L5
Format settings, BVOP : Yes
Format settings, QPel : No
Format settings, GMC : No warppoints
Format settings, Matrix : Custom
Codec ID : XVID
Codec ID/Hint : XviD
Duration : 44mn 56s
Bit rate : 2 186 Kbps
Width : 720 pixels
Height : 416 pixels
Display aspect ratio : 16:9
Frame rate : 25.000 fps
Resolution : 8 bits
Colorimetry : 4:2:0
Scan type : Progressive
Bits/(Pixel*Frame) : 0.292
Stream size : 703 MiB (94%)
Writing library : XviD 64

Audio
ID : 1
Format : AC-3
Format/Info : Audio Coding 3
Codec ID : 2000
Duration : 44mn 56s
Bit rate mode : Constant
Bit rate : 128 Kbps
Channel(s) : 2 channels
Channel positions : L R
Sampling rate : 48.0 KHz
Stream size : 41.1 MiB (6%)
Alignment : Aligned on interleaves
Interleave, duration : 96 ms (2.40 video frames)
Interleave, preload duration : 96 ms

Screenshots




no mirrors please, Follow The Rules
Visit Polik88 Blog Here
no password

ADVERTISING » Free Fast Download! « ADVERTISING


No comments for the news