Loading...

Grand Designs: Collection 3 (2006) (Repost)

Posted By : Polik88 | Date : 06 Aug 2013 02:26:11 | Comments : 0 |
|



Grand Designs: Collection 3 (2006) (Repost)
DVDRip | English | AVI/XVID 25.000 fps 1301 Kbps | 720x400 | MP3 128 Kbps 48.0 khz | 7x48mn | 3.78 GB
Genre: Documentary

Join host Kevin McCloud as he follows the progress of an imaginative, creative and brave set of people as they go about putting blood, sweat tears and quite often their life savings into building their dream home.

MediaInfo:
General
Complete name : S03E01 - Hackney - Victorian terraced house.divx
Format : DivX
Format/Info : Hack of AVI
File size : 501 MiB
Duration : 48mn 43s
Overall bit rate : 1 438 Kbps

Video
ID : 0
Format : MPEG-4 Visual
Format settings, BVOP : 1
Format settings, QPel : No
Format settings, GMC : No warppoints
Format settings, Matrix : Default (H.263)
Muxing mode : Packed bitstream
Codec ID : DX50
Codec ID/Hint : DivX 5
Duration : 48mn 43s
Bit rate : 1 301 Kbps
Width : 720 pixels
Height : 400 pixels
Display aspect ratio : 16:9
Frame rate : 25.000 fps
Color space : YUV
Chroma subsampling : 4:2:0
Bit depth : 8 bits
Scan type : Progressive
Compression mode : Lossy
Bits/(Pixel*Frame) : 0.181
Stream size : 453 MiB (90%)
Title : Video
Writing library : DivX 6.2.5 (UTC 2006-07)

Audio
ID : 1
Format : MPEG Audio
Format version : Version 1
Format profile : Layer 3
Mode : Dual mono
Codec ID : 55
Codec ID/Hint : MP3
Duration : 48mn 43s
Bit rate mode : Constant
Bit rate : 128 Kbps
Channel(s) : 2 channels
Sampling rate : 48.0 KHz
Compression mode : Lossy
Stream size : 44.6 MiB (9%)
Alignment : Split accross interleaves
Interleave, duration : 40 ms (1.00 video frame)
Interleave, preload duration : 500 ms
Title : Audio
Writing library : LAME3.92

Screenshots




no mirrors please, Follow The Rules
Visit Polik88 Blog Here
no password


ADVERTISING » Free Fast Download! « ADVERTISING


No comments for the news