Loading...

Discovery Channel - How It's Made: The Fun Stuff (2012)

Posted By : notbanned | Date : 13 Aug 2013 07:08:05 | Comments : 0 |
|


Discovery Channel - How It's Made: The Fun Stuff (2012)

Discovery Channel - How It's Made: The Fun Stuff (2012)
DVDRip | 960x540 | .MP4/AVC @ 1708 Kbps | 160 minutes | Audio: English AAC 160 kbps, 2 channels | Subs: None | 2.04 GiB
Genre: Documentary

Have you ever wondered how things are made? Find out how many of the everyday objects kids use become the fun things they are! From pin ball to paint, this program for children explains how everyday objects can be used to make something entirely new.


MediaInfo

General
Complete name : Discovery.Ch.How.Its.Made.The.Fun.Stuff.1of2.mp4
Format : MPEG-4
Format profile : Base Media
Codec ID : isom
File size : 1 007 MiB
Duration : 1h 15mn
Overall bit rate mode : Variable
Overall bit rate : 1 873 Kbps
Encoded date : UTC 2013-08-12 12:41:01
Tagged date : UTC 2013-08-12 12:41:01
Writing application : Lavf51.12.1

Video
ID : 1
Format : AVC
Format/Info : Advanced Video Codec
Format profile : High@L3.1
Format settings, CABAC : No
Format settings, ReFrames : 1 frame
Format settings, GOP : M=1, N=12
Codec ID : avc1
Codec ID/Info : Advanced Video Coding
Duration : 1h 15mn
Bit rate : 1 708 Kbps
Width : 960 pixels
Height : 540 pixels
Display aspect ratio : 16:9
Frame rate mode : Constant
Frame rate : 29.970 fps
Color space : YUV
Chroma subsampling : 4:2:0
Bit depth : 8 bits
Scan type : Progressive
Bits/(Pixel*Frame) : 0.110
Stream size : 918 MiB (91%)
Encoded date : UTC 2013-08-12 12:41:01
Tagged date : UTC 2013-08-12 12:41:01

Audio
ID : 2
Format : AAC
Format/Info : Advanced Audio Codec
Format profile : LC
Codec ID : 40
Duration : 1h 15mn
Bit rate mode : Variable
Bit rate : 160 Kbps
Channel(s) : 2 channels
Channel positions : Front: L R
Sampling rate : 48.0 KHz
Compression mode : Lossy
Stream size : 86.0 MiB (9%)
Encoded date : UTC 2013-08-12 12:41:01
Tagged date : UTC 2013-08-12 12:41:01


Screenshots:






ADVERTISING » Very Fast Download! « ADVERTISING


No comments for the news