Loading...

Puss in Boots / Der gestiefelte Kater (2011)

Posted By : FenixN | Date : 10 Jan 2012 14:30:35 | Comments : 0 |
|



Puss in Boots / Le chat potté (2011)
DVDScr LD | AVI / XviD, 935 kb/s | 640x480 | 01:30:20 | German: MP3, 128 kb/s (2 ch) | 694 mb
Genre: Adventure, Animation, Comedy | USA

Bevor der gestiefelte Kater (Originalstimme: Antonio Banderas, deutsche Version: Benno Fürmann) von seinem vermeintlich besten Freund Humpty Dumpty (Zach Galifianakis, Elton) betrogen wurde, war er ein von allen gefeierter Volksheld. Geächtet von den anderen versucht sich der gestiefelte Kater nun mit kleinen Diebstählen über Wasser zu halten. Dem Gängsterpärchen Jack (Billy Bob Thornton, Christian Berkel) und Jill (Amy Sadaris, Andrea Sawatzki) möchte er auf einem seiner Diebeszüge drei magische Bohnen entwenden. Doch er ist nicht der Einzige, der hinter den Hülsenfrüchten her ist: Auch die Katzendame Kitty Softpaws (Selma Hayek), die zudem mit Humpty Dumpty zusammen arbeitet, soll die Bohnen stehlen. Der gestiefelte Kater muss sich wohl oder übel mit den beiden zusammentun.


imdb: 7,0/10 12.645 Stimmen

MediaInfo:
Format : AVI
Format/Info : Audio Video Interleave
File size : 694 MiB
Duration : 1h 30mn
Overall bit rate : 1 075 Kbps
Writing application : VirtualDubMod 1.5.10.2 (build 2542/release)
Writing library : VirtualDubMod build 2542/release

Video
ID : 0
Format : MPEG-4 Visual
Format profile : Advanced Simple@L5
Format settings, BVOP : 1
Format settings, QPel : No
Format settings, GMC : No warppoints
Format settings, Matrix : Default (H.263)
Codec ID : XVID
Codec ID/Hint : XviD
Duration : 1h 30mn
Bit rate : 935 Kbps
Width : 640 pixels
Height : 480 pixels
Display aspect ratio : 4:3
Frame rate : 29.970 fps
Color space : YUV
Chroma subsampling : 4:2:0
Bit depth : 8 bits
Scan type : Progressive
Compression mode : Lossy
Bits/(Pixel*Frame) : 0.102
Stream size : 604 MiB (87%)
Writing library : XviD 64

Audio
ID : 1
Format : MPEG Audio
Format version : Version 1
Format profile : Layer 3
Mode : Joint stereo
Codec ID : 55
Codec ID/Hint : MP3
Duration : 1h 30mn
Bit rate mode : Constant
Bit rate : 128 Kbps
Channel(s) : 2 channels
Sampling rate : 48.0 KHz
Compression mode : Lossy
Stream size : 82.7 MiB (12%)
Alignment : Aligned on interleaves
Interleave, duration : 33 ms (1.00 video frame)
Interleave, preload duration : 504 ms


screenshot




Welcome to the best movies collection (English, German, French, Italian language), best software, best eLearning video and many-many more: LINK
Do not forget to check my blog! Updated regularly!

No mirrors pls! Read the rules.

ADVERTISING » Very Fast Download! « ADVERTISING


No comments for the news