Loading...

GONG - DAEVID ALLEN - MOTHER GONG - PLANET GONG - HERE & NOW - IN LOSSLESS

Posted By : Poor_ | Date : 30 Apr 2009 19:13:00 | Comments : 57 |
|



GONG - DAEVID ALLEN - MOTHER GONG - PLANET GONG - HERE & NOW
20 Albums in lossless | EAC+flac+log+cue+scans | Total 7 GB
Psychodelic, Avant-garde, Space, Progressive Rock
Be careful ! - It's "opium for the people"

Daevid Allen (born Christopher David Allen, January 13th, 1938 in Melbourne, Australia) is an Australian poet, guitarist, singer, composer and performance artist best known as co-founder of the psychedelic rock bands Soft Machine (in the UK, 1966) and Gong (in France, 1970). He is sometimes credited as "Divided Alien".

In 1960, inspired by the Beat Generation writers he had discovered whilst working in a Melbourne bookshop, Daevid Allen travelled to Paris where he stayed at the Beat Hotel, moving into a room that had recently been vacated by Allen Ginsberg and Peter Orlovsky. While selling the International Herald Tribune around Le Chat qui Peche and the Latin Quarter, he met Terry Riley and also gained free access to the jazz clubs in the area. After meeting up with Willaim S. Burroughs and inspired by philosophies of Sun Ra, he formed a free jazz outfit, the Daevid Allen Trio, and performed at Burroughs’ theatre pieces based on Burroughs' novel "The Ticket That Exploded".
Allen travelled to England, renting a room in Canterbury where he met his landlord’s son, 16 year old Robert Wyatt.. They formed the band Soft Machine in 1966 with Kevin Ayers and Mike Ratledge. Ayers and Wyatt had previously played in Wilde Flowers.

Following a tour of Europe, Allen was refused re-entry to the UK due to overstaying his visa on a prior visit. He settled in Paris where, in May 1968, he took part in the protests which swept the city. He handed out teddy bears to the police and recited poetry in pidgin French, and now admits that he was scorned by the other protesters for being a beatnik.

Fleeing the police, he made his way to Deya, Majorca, with his partner Gilli Smyth. It was here that he recorded the first album under the name Gong, titled Magick Brother (released on BYG Actuel in 1969). They were joined by flautist and saxophonist Didier Malherbe, who they claimed to have found living in a cave on Robert Graves' estate.

In 1971 Gong released Camembert Electrrique. They became somewhat of an anarchist commune in rural France between 1973 and 1974. They were joined by Steve Hillage to record the Radio Gnome Trilogy after signing with Virgin, consisting of Flying Teapot, Angel's Egg and You.

Allen left this incarnation of Gong and recorded two solo albums, Good Morning and Now Is the Happiest Time of Your Life. In 1977 he performed and recorded as Planet Gong and rejoined the early-70s version of the group for a one-off show at the Hippodrome in Paris. Portions of this concert (which was several hours long) was released on a double-LP entitled Gong Est Mort - Vive Gong!.

In 1980 Allen teamed up with Bill Laswelll for the punk-influenced New York Gong. This effort yielded an LP called About Time. More projects followed, including Invisible Opera Company Of Tibet, Brainville, Ex (not to be confused with the Dutch punk band The Ex), and Magic Brothers.

In 1981 Allen returned to Australia, taking up residence in Byron Bay where he worked on performance pieces and poetry. He performed with performance artist David Tolley using tape loops and drum machines. He is currently involved with a project entitled you’N’gong (a play on the phrase “Young Gong”) with his son, Orlando, and members of Acid Mothers Temple(the collaborations are performed under the name Acid Mothers Gong), as well as an improvisation outfit entitled Guru And Zero.

For many years now, Daevid Allen has been a member of the University of Errors, who have released four albums.

In November 2006 a Gong Family Unconvention was held for Gong fans in Amsterdam which included a reunion of many former Gong members from the "classic" early 70s lineup.

He now lives in Byron Bay, Australia.

Let's start !

PLANET GONG - Floating Anarchy
1977 | EAC+flac+log+cue+scans | 295.95 MB

Tracks:
1. Psychological Overture Zero (2:36)
2. Floatin' Anarchy Zero (5:16)
3. Stone Innoc Frankenstein Allen (3:19)
4. New Age Transformation Try: No More Sages Zero (12:06)
5. Opium For The People. Allen (4:24)
6. Allez Ali Baba Black-Sheep Have You Any Bull Shit: Mama Maya Mantram Zero (15:01)

Log
Exact Audio Copy V0.99 prebeta 3 from 28. July 2007

EAC extraction logfile from 25. April 2009, 14:45

Planet Gong / Planet Gong Live Floating Anarchy 1977

Used drive : PIONEER DVD-RW DVR-112D Adapter: 0 ID: 0

Read mode : Secure
Utilize accurate stream : Yes
Defeat audio cache : Yes
Make use of C2 pointers : No

Read offset correction : 48
Overread into Lead-In and Lead-Out : No
Fill up missing offset samples with silence : Yes
Delete leading and trailing silent blocks : No
Null samples used in CRC calculations : Yes
Used interface : Native Win32 interface for Win NT & 2000
Gap handling : Appended to previous track

Used output format : User Defined Encoder
Selected bitrate : 896 kBit/s
Quality : High
Add ID3 tag : No
Command line compressor : C:\Program Files\Exact Audio Copy\FLAC\FLAC.EXE
Additional command line options : -V -8 -T "artist=%a" -T "title=%t" -T "album=%g" -T "date=%y" -T "tracknumber=%n" -T "genre=%m" %s


TOC of the extracted CD

Track | Start | Length | Start sector | End sector
---------------------------------------------------------
1 | 0:00.32 | 2:36.00 | 32 | 11731
2 | 2:36.32 | 5:15.48 | 11732 | 35404
3 | 7:52.05 | 3:18.50 | 35405 | 50304
4 | 11:10.55 | 12:06.00 | 50305 | 104754
5 | 23:16.55 | 4:23.55 | 104755 | 124534
6 | 27:40.35 | 15:01.15 | 124535 | 192124


Track 1

Filename E:\Z-POST\GONG - Floating Anarchy 1977 (EAC,log,cue,flac,scans)\01 - Psychological Overture.wav

Pre-gap length 0:00:02.42

Peak level 99.4 %
Track quality 100.0 %
Test CRC FFD2FB96
Copy CRC FFD2FB96
Copy OK

Track 2

Filename E:\Z-POST\GONG - Floating Anarchy 1977 (EAC,log,cue,flac,scans)\02 - Floatin' Anarchy.wav

Peak level 99.9 %
Track quality 100.0 %
Test CRC A2668365
Copy CRC A2668365
Copy OK

Track 3

Filename E:\Z-POST\GONG - Floating Anarchy 1977 (EAC,log,cue,flac,scans)\03 - Stone Innoc Frankenstein.wav

Peak level 100.0 %
Track quality 100.0 %
Test CRC 927D8E2B
Copy CRC 927D8E2B
Copy OK

Track 4

Filename E:\Z-POST\GONG - Floating Anarchy 1977 (EAC,log,cue,flac,scans)\04 - New Age Transformation Try - No More Sages.wav

Peak level 98.9 %
Track quality 100.0 %
Test CRC 5D56F79F
Copy CRC 5D56F79F
Copy OK

Track 5

Filename E:\Z-POST\GONG - Floating Anarchy 1977 (EAC,log,cue,flac,scans)\05 - Opium For The People.wav

Peak level 93.3 %
Track quality 100.0 %
Test CRC F4E13041
Copy CRC F4E13041
Copy OK

Track 6

Filename E:\Z-POST\GONG - Floating Anarchy 1977 (EAC,log,cue,flac,scans)\06 - Allez Ali Baba Black-Sheep Have You Any Bull Shit - Mama Maya Mantram.wav

Peak level 99.9 %
Track quality 99.9 %
Test CRC B9181476
Copy CRC B9181476
Copy OK

No errors occurred

End of status report

Link:
http://www.megaupload.com/?d=DWG5AFB5


DAEVID ALLEN - Good Morning!
1976 | EAC+flac+log+cue+scans | 275.37 MB

Tracks:
1. Children of the New World (3:42)
2. Good Morning (5:17)
3. Spirit (4:47)
4. Song of Satisfaction (2:17)
5. Have You Seen My Friend? (3:37)
6. French Garden (3:23)
7. Wise Man in Your Heart (11:28)
8. She Doesn't She (2:39)
9. Euterpe Gratitude Piece (9:50)

Log
Exact Audio Copy V0.99 prebeta 3 from 28. July 2007

EAC extraction logfile from 24. April 2009, 17:20

Daevid Allen / Good Morning

Used drive : PIONEER DVD-RW DVR-112D Adapter: 0 ID: 0

Read mode : Secure
Utilize accurate stream : Yes
Defeat audio cache : Yes
Make use of C2 pointers : No

Read offset correction : 48
Overread into Lead-In and Lead-Out : No
Fill up missing offset samples with silence : Yes
Delete leading and trailing silent blocks : No
Null samples used in CRC calculations : Yes
Used interface : Native Win32 interface for Win NT & 2000
Gap handling : Appended to previous track

Used output format : User Defined Encoder
Selected bitrate : 896 kBit/s
Quality : High
Add ID3 tag : No
Command line compressor : C:\Program Files\Exact Audio Copy\FLAC\FLAC.EXE
Additional command line options : -V -8 -T "artist=%a" -T "title=%t" -T "album=%g" -T "date=%y" -T "tracknumber=%n" -T "genre=%m" %s


TOC of the extracted CD

Track | Start | Length | Start sector | End sector
---------------------------------------------------------
1 | 0:00.00 | 3:41.18 | 0 | 16592
2 | 3:41.18 | 5:16.74 | 16593 | 40366
3 | 8:58.17 | 4:47.73 | 40367 | 61964
4 | 13:46.15 | 2:17.30 | 61965 | 72269
5 | 16:03.45 | 3:36.57 | 72270 | 88526
6 | 19:40.27 | 3:23.18 | 88527 | 103769
7 | 23:03.45 | 11:29.56 | 103770 | 155500
8 | 34:33.26 | 2:38.67 | 155501 | 167417
9 | 37:12.18 | 9:55.34 | 167418 | 212076


Track 1

Filename E:\Z-POST\DAEVID ALLEN - Good Morning! (1976-2007 24-bit Remastered Expanded Edition) (EAC,log,cue,flac,scans)\01 - Children Of The New World.wav

Pre-gap length 0:00:02.00

Peak level 98.8 %
Track quality 99.9 %
Test CRC AF903CCA
Copy CRC AF903CCA
Copy OK

Track 2

Filename E:\Z-POST\DAEVID ALLEN - Good Morning! (1976-2007 24-bit Remastered Expanded Edition) (EAC,log,cue,flac,scans)\02 - Good Morning.wav

Peak level 98.8 %
Track quality 99.9 %
Test CRC 85A5C935
Copy CRC 85A5C935
Copy OK

Track 3

Filename E:\Z-POST\DAEVID ALLEN - Good Morning! (1976-2007 24-bit Remastered Expanded Edition) (EAC,log,cue,flac,scans)\03 - Spirit.wav

Peak level 98.8 %
Track quality 100.0 %
Test CRC D191761D
Copy CRC 93E7A23D
Copy OK

Track 4

Filename E:\Z-POST\DAEVID ALLEN - Good Morning! (1976-2007 24-bit Remastered Expanded Edition) (EAC,log,cue,flac,scans)\04 - Songs Of Satisfaction.wav

Peak level 79.3 %
Track quality 99.3 %
Test CRC D7817086
Copy CRC E0874604
Copy OK

Track 5

Filename E:\Z-POST\DAEVID ALLEN - Good Morning! (1976-2007 24-bit Remastered Expanded Edition) (EAC,log,cue,flac,scans)\05 - Have You Seen My Friend .wav

Pre-gap length 0:00:00.01

Peak level 98.8 %
Track quality 99.9 %
Test CRC 0F2669AE
Copy CRC 0F2669AE
Copy OK

Track 6

Filename E:\Z-POST\DAEVID ALLEN - Good Morning! (1976-2007 24-bit Remastered Expanded Edition) (EAC,log,cue,flac,scans)\06 - French Garden.wav

Peak level 98.8 %
Track quality 100.0 %
Test CRC E46A374A
Copy CRC E46A374A
Copy OK

Track 7

Filename E:\Z-POST\DAEVID ALLEN - Good Morning! (1976-2007 24-bit Remastered Expanded Edition) (EAC,log,cue,flac,scans)\07 - Wise Man In Your Heart.wav

Peak level 98.8 %
Track quality 99.9 %
Test CRC 074ABC50
Copy CRC 074ABC50
Copy OK

Track 8

Filename E:\Z-POST\DAEVID ALLEN - Good Morning! (1976-2007 24-bit Remastered Expanded Edition) (EAC,log,cue,flac,scans)\08 - She Doesn't She ....wav

Peak level 87.2 %
Track quality 100.0 %
Test CRC E3DC8246
Copy CRC E3DC8246
Copy OK

Track 9

Filename E:\Z-POST\DAEVID ALLEN - Good Morning! (1976-2007 24-bit Remastered Expanded Edition) (EAC,log,cue,flac,scans)\09 - Euterpe Gratitude Piece (Bonus Track).wav

Peak level 86.5 %
Track quality 100.0 %
Test CRC 09B7EC23
Copy CRC 09B7EC23
Copy OK

No errors occurred

End of status report

Link:
http://www.megaupload.com/?d=BW87N6OP


DAEVID ALLEN - Now Is The Happiest Time Of Your Life
1977 | EAC+flac+log+cue+scans | 286.92 MB

Tracks :
1. Flamenco Zero (1:45)
2. Why Do We Treat Ourselves Like We Do? (6:45)
3. Tally & Orlando Meet The Cockpot Pixie (3:13)
4. See You On The Moontower (5:46)
5. Poet For Sale (3:55)
6. Crocodile Nonsens Poem (1:00)
7. Only Make Love If You Want To (5:29)
8. I Am (11:04)
9. Deya Goddess (6:36)

Log
Exact Audio Copy V0.99 prebeta 3 from 28. July 2007

EAC extraction logfile from 25. April 2009, 16:23

Daevid Allen / Now is the happiest time of your life

Used drive : PIONEER DVD-RW DVR-112D Adapter: 0 ID: 0

Read mode : Secure
Utilize accurate stream : Yes
Defeat audio cache : Yes
Make use of C2 pointers : No

Read offset correction : 48
Overread into Lead-In and Lead-Out : No
Fill up missing offset samples with silence : Yes
Delete leading and trailing silent blocks : No
Null samples used in CRC calculations : Yes
Used interface : Native Win32 interface for Win NT & 2000
Gap handling : Appended to previous track

Used output format : User Defined Encoder
Selected bitrate : 896 kBit/s
Quality : High
Add ID3 tag : No
Command line compressor : C:\Program Files\Exact Audio Copy\FLAC\FLAC.EXE
Additional command line options : -V -8 -T "artist=%a" -T "title=%t" -T "album=%g" -T "date=%y" -T "tracknumber=%n" -T "genre=%m" %s


TOC of the extracted CD

Track | Start | Length | Start sector | End sector
---------------------------------------------------------
1 | 0:00.00 | 1:46.35 | 0 | 7984
2 | 1:46.35 | 6:51.27 | 7985 | 38836
3 | 8:37.62 | 3:15.55 | 38837 | 53516
4 | 11:53.42 | 5:41.20 | 53517 | 79111
5 | 17:34.62 | 3:28.05 | 79112 | 94716
6 | 21:02.67 | 0:59.70 | 94717 | 99211
7 | 22:02.62 | 5:37.40 | 99212 | 124526
8 | 27:40.27 | 11:10.28 | 124527 | 174804
9 | 38:50.55 | 6:45.30 | 174805 | 205209


Track 1

Filename E:\Z-POST\DAEVID ALLEN - Now Is The Happiest Time Of Your Life (1977-2007 24-bit Remastered Expanded Edition) (EAC,log,cue,flac,scans)\01 - Flamenco zero.wav

Pre-gap length 0:00:02.00

Peak level 69.7 %
Track quality 99.9 %
Test CRC 263737FB
Copy CRC 263737FB
Copy OK

Track 2

Filename E:\Z-POST\DAEVID ALLEN - Now Is The Happiest Time Of Your Life (1977-2007 24-bit Remastered Expanded Edition) (EAC,log,cue,flac,scans)\02 - Why do we treat ourselves like we do.wav

Pre-gap length 0:00:02.00

Peak level 61.0 %
Track quality 100.0 %
Test CRC 1AD2F4B0
Copy CRC 1AD2F4B0
Copy OK

Track 3

Filename E:\Z-POST\DAEVID ALLEN - Now Is The Happiest Time Of Your Life (1977-2007 24-bit Remastered Expanded Edition) (EAC,log,cue,flac,scans)\03 - Tally & Orlando meet the cockpot pixie.wav

Pre-gap length 0:00:02.00

Peak level 65.6 %
Track quality 100.0 %
Test CRC 1E8BE649
Copy CRC 1E8BE649
Copy OK

Track 4

Filename E:\Z-POST\DAEVID ALLEN - Now Is The Happiest Time Of Your Life (1977-2007 24-bit Remastered Expanded Edition) (EAC,log,cue,flac,scans)\04 - See you on the moontower.wav

Pre-gap length 0:00:01.93

Peak level 83.0 %
Track quality 100.0 %
Test CRC D4B1FF5D
Copy CRC D4B1FF5D
Copy OK

Track 5

Filename E:\Z-POST\DAEVID ALLEN - Now Is The Happiest Time Of Your Life (1977-2007 24-bit Remastered Expanded Edition) (EAC,log,cue,flac,scans)\05 - Poet for sale.wav

Pre-gap length 0:00:02.00

Peak level 100.0 %
Track quality 100.0 %
Test CRC 9F9B37A4
Copy CRC 9F9B37A4
Copy OK

Track 6

Filename E:\Z-POST\DAEVID ALLEN - Now Is The Happiest Time Of Your Life (1977-2007 24-bit Remastered Expanded Edition) (EAC,log,cue,flac,scans)\06 - Crocodile nonsense poem.wav

Pre-gap length 0:00:02.00

Peak level 40.3 %
Track quality 100.0 %
Test CRC 8ECE99FA
Copy CRC 8ECE99FA
Copy OK

Track 7

Filename E:\Z-POST\DAEVID ALLEN - Now Is The Happiest Time Of Your Life (1977-2007 24-bit Remastered Expanded Edition) (EAC,log,cue,flac,scans)\07 - Only make love if you want to.wav

Pre-gap length 0:00:02.00

Peak level 78.9 %
Track quality 100.0 %
Test CRC 18C181DD
Copy CRC 18C181DD
Copy OK

Track 8

Filename E:\Z-POST\DAEVID ALLEN - Now Is The Happiest Time Of Your Life (1977-2007 24-bit Remastered Expanded Edition) (EAC,log,cue,flac,scans)\08 - I am.wav

Pre-gap length 0:00:02.00

Peak level 50.8 %
Track quality 99.9 %
Test CRC 68D6354F
Copy CRC 68D6354F
Copy OK

Track 9

Filename E:\Z-POST\DAEVID ALLEN - Now Is The Happiest Time Of Your Life (1977-2007 24-bit Remastered Expanded Edition) (EAC,log,cue,flac,scans)\09 - Deya goddess.wav

Pre-gap length 0:00:02.00

Peak level 78.1 %
Track quality 100.0 %
Test CRC 6A97B2D1
Copy CRC 6A97B2D1
Copy OK

No errors occurred

End of status report

Link:
http://www.megaupload.com/?d=JRD45SC0


DAEVID ALLEN & MOTHER GONG - The Owl And The Tree
1989 | EAC+flac+log+cue+scans | 372.74 MB

Tracks :
1. I Am a Tree (4:40)
2. Lament (3:36)
3. Hands (3:15)
4. Ally (4:11)
5. La Dea Madrí (7:05)
6. Owly Song (6:36)
7. I Am My Own Lover (14:31)
8. Love Poem (4:59)
9. Coda Wave (2:01)

Log
Exact Audio Copy V0.99 prebeta 3 from 28. July 2007

EAC extraction logfile from 5. April 2009, 18:15

Daevid Allen & Mother Gong / The Owl And The Tree

Used drive : PIONEER DVD-RW DVR-112D Adapter: 0 ID: 0

Read mode : Secure
Utilize accurate stream : Yes
Defeat audio cache : Yes
Make use of C2 pointers : No

Read offset correction : 48
Overread into Lead-In and Lead-Out : No
Fill up missing offset samples with silence : Yes
Delete leading and trailing silent blocks : No
Null samples used in CRC calculations : Yes
Used interface : Native Win32 interface for Win NT & 2000
Gap handling : Appended to previous track

Used output format : User Defined Encoder
Selected bitrate : 896 kBit/s
Quality : High
Add ID3 tag : No
Command line compressor : C:\Program Files\Exact Audio Copy\FLAC\FLAC.EXE
Additional command line options : -V -8 -T "artist=%a" -T "title=%t" -T "album=%g" -T "date=%y" -T "tracknumber=%n" -T "genre=%m" %s


TOC of the extracted CD

Track | Start | Length | Start sector | End sector
---------------------------------------------------------
1 | 0:00.00 | 4:40.12 | 0 | 21011
2 | 4:40.12 | 3:36.24 | 21012 | 37235
3 | 8:16.36 | 3:15.65 | 37236 | 51925
4 | 11:32.26 | 4:11.19 | 51926 | 70769
5 | 15:43.45 | 7:05.42 | 70770 | 102686
6 | 22:49.12 | 6:36.26 | 102687 | 132412
7 | 29:25.38 | 14:31.37 | 132413 | 197774
8 | 43:57.00 | 4:59.43 | 197775 | 220242
9 | 48:56.43 | 2:01.27 | 220243 | 229344


Track 1

Filename E:\Z-POST\DAEVID ALLEN & MOTHER GONG - 1989 (2004) The Owl And The Tree (EAC,log,cue,flac,scans)\01 - Mother Gong , I am a tree.wav

Pre-gap length 0:00:02.00

Peak level 99.9 %
Track quality 100.0 %
Test CRC B2AE3C40
Copy CRC B2AE3C40
Copy OK

Track 2

Filename E:\Z-POST\DAEVID ALLEN & MOTHER GONG - 1989 (2004) The Owl And The Tree (EAC,log,cue,flac,scans)\02 - Mother Gong , Lament.wav

Peak level 99.9 %
Track quality 100.0 %
Test CRC EFD5FFD9
Copy CRC EFD5FFD9
Copy OK

Track 3

Filename E:\Z-POST\DAEVID ALLEN & MOTHER GONG - 1989 (2004) The Owl And The Tree (EAC,log,cue,flac,scans)\03 - Mother Gong , Hands.wav

Peak level 100.0 %
Track quality 100.0 %
Test CRC 46A7E7A4
Copy CRC 46A7E7A4
Copy OK

Track 4

Filename E:\Z-POST\DAEVID ALLEN & MOTHER GONG - 1989 (2004) The Owl And The Tree (EAC,log,cue,flac,scans)\04 - Mother Gong , Unseen Ally.wav

Peak level 99.9 %
Track quality 100.0 %
Test CRC 4D9718DD
Copy CRC 4D9718DD
Copy OK

Track 5

Filename E:\Z-POST\DAEVID ALLEN & MOTHER GONG - 1989 (2004) The Owl And The Tree (EAC,log,cue,flac,scans)\05 - Mother Gong , La dea madri.wav

Peak level 99.7 %
Track quality 100.0 %
Test CRC CDCC4E35
Copy CRC CDCC4E35
Copy OK

Track 6

Filename E:\Z-POST\DAEVID ALLEN & MOTHER GONG - 1989 (2004) The Owl And The Tree (EAC,log,cue,flac,scans)\06 - Daevid Allen , Owly Song.wav

Peak level 97.1 %
Track quality 100.0 %
Test CRC B29A501C
Copy CRC B29A501C
Copy OK

Track 7

Filename E:\Z-POST\DAEVID ALLEN & MOTHER GONG - 1989 (2004) The Owl And The Tree (EAC,log,cue,flac,scans)\07 - Daevid Allen , I am My own Lover.wav

Peak level 99.7 %
Track quality 100.0 %
Test CRC BF40FF03
Copy CRC BF40FF03
Copy OK

Track 8

Filename E:\Z-POST\DAEVID ALLEN & MOTHER GONG - 1989 (2004) The Owl And The Tree (EAC,log,cue,flac,scans)\08 - Mother Gong , Love Poem.wav

Peak level 99.7 %
Track quality 100.0 %
Test CRC 090282DC
Copy CRC 090282DC
Copy OK

Track 9

Filename E:\Z-POST\DAEVID ALLEN & MOTHER GONG - 1989 (2004) The Owl And The Tree (EAC,log,cue,flac,scans)\09 - Mother Gong , Coda Wave.wav

Peak level 93.6 %
Track quality 100.0 %
Test CRC B3B54E16
Copy CRC B3B54E16
Copy OK

No errors occurred

End of status report

Link:
http://www.megaupload.com/?d=O0DMJJH1


GONG - Angel's Egg - Radio Gnome Invisible - Pt. 2
1973 | EAC+flac+log+cue+scans | 353.6 MB

Tracks :
1. Other side of the sky (7:40)
2. Sold on the highest buddha (4:25)
3. Castle in the clouds (1:09)
4. Prostitute poem (4:52)
5. Givin' my love to you (0:43)
6. Selene (2:09)
7. Flute salad (2:09)
8. Oily way (3:37)
9. Outer temple (1:09)
10. Inner temple (2:34)
11. Percolations (0:46)
12. Love is how you make it (3:27)
13. I never glid before (5:36)
14. Eat that phonebook coda (3:12)
15. Other Side Of The Sky - Single Version (4:29)
16. Ooby - Scooby Doomsday Or The D-Day Dj´s Got The D.D.T. Blues - Bonus (5:09)
17. Love Is How Y Make It - 1973 Vocal Mix (2:30)
18. Eat That Phone Book Coda - Early Version (3:08)

Log
Exact Audio Copy V0.99 prebeta 3 from 28. July 2007

EAC extraction logfile from 24. April 2009, 19:39

Gong / Angels Egg - Radio Gnome Invisible - Pt. 2

Used drive : PIONEER DVD-RW DVR-112D Adapter: 0 ID: 0

Read mode : Secure
Utilize accurate stream : Yes
Defeat audio cache : Yes
Make use of C2 pointers : No

Read offset correction : 48
Overread into Lead-In and Lead-Out : No
Fill up missing offset samples with silence : Yes
Delete leading and trailing silent blocks : No
Null samples used in CRC calculations : Yes
Used interface : Native Win32 interface for Win NT & 2000
Gap handling : Appended to previous track

Used output format : User Defined Encoder
Selected bitrate : 896 kBit/s
Quality : High
Add ID3 tag : No
Command line compressor : C:\Program Files\Exact Audio Copy\FLAC\FLAC.EXE
Additional command line options : -V -8 -T "artist=%a" -T "title=%t" -T "album=%g" -T "date=%y" -T "tracknumber=%n" -T "genre=%m" %s


TOC of the extracted CD

Track | Start | Length | Start sector | End sector
---------------------------------------------------------
1 | 0:00.00 | 7:38.50 | 0 | 34399
2 | 7:38.50 | 4:28.03 | 34400 | 54502
3 | 12:06.53 | 1:10.06 | 54503 | 59758
4 | 13:16.59 | 4:53.43 | 59759 | 81776
5 | 18:10.27 | 0:44.08 | 81777 | 85084
6 | 18:54.35 | 3:42.44 | 85085 | 101778
7 | 22:37.04 | 2:09.60 | 101779 | 111513
8 | 24:46.64 | 3:37.47 | 111514 | 127835
9 | 28:24.36 | 1:08.55 | 127836 | 132990
10 | 29:33.16 | 2:34.19 | 132991 | 144559
11 | 32:07.35 | 0:45.59 | 144560 | 147993
12 | 32:53.19 | 3:28.41 | 147994 | 163634
13 | 36:21.60 | 5:37.58 | 163635 | 188967
14 | 41:59.43 | 3:09.02 | 188968 | 203144
15 | 45:08.45 | 4:29.04 | 203145 | 223323
16 | 49:37.49 | 5:09.00 | 223324 | 246498
17 | 54:46.49 | 2:30.00 | 246499 | 257748
18 | 57:16.49 | 3:08.36 | 257749 | 271884


Track 1

Filename E:\Z-POST\GONG - Angel's Egg (EAC,log,cue,flac,scans)\01 - Other Side Of The Sky.wav

Pre-gap length 0:00:02.00

Peak level 94.7 %
Track quality 100.0 %
Test CRC D9AF8828
Copy CRC D9AF8828
Copy OK

Track 2

Filename E:\Z-POST\GONG - Angel's Egg (EAC,log,cue,flac,scans)\02 - Sold To The Highest Buddha.wav

Peak level 98.8 %
Track quality 100.0 %
Test CRC 66703EDD
Copy CRC 66703EDD
Copy OK

Track 3

Filename E:\Z-POST\GONG - Angel's Egg (EAC,log,cue,flac,scans)\03 - Castle In The Clouds.wav

Peak level 85.1 %
Track quality 99.8 %
Test CRC D6A78D70
Copy CRC D6A78D70
Copy OK

Track 4

Filename E:\Z-POST\GONG - Angel's Egg (EAC,log,cue,flac,scans)\04 - Prostitute Poem.wav

Peak level 98.8 %
Track quality 100.0 %
Test CRC 98F55200
Copy CRC 98F55200
Copy OK

Track 5

Filename E:\Z-POST\GONG - Angel's Egg (EAC,log,cue,flac,scans)\05 - Givin My Luv To You.wav

Peak level 57.0 %
Track quality 100.0 %
Test CRC 54F47A47
Copy CRC 54F47A47
Copy OK

Track 6

Filename E:\Z-POST\GONG - Angel's Egg (EAC,log,cue,flac,scans)\06 - Selene.wav

Peak level 98.8 %
Track quality 99.7 %
Test CRC 6F039073
Copy CRC 6F039073
Copy OK

Track 7

Filename E:\Z-POST\GONG - Angel's Egg (EAC,log,cue,flac,scans)\07 - Flute Salad.wav

Peak level 33.0 %
Track quality 99.3 %
Test CRC CF087C66
Copy CRC CF087C66
Copy OK

Track 8

Filename E:\Z-POST\GONG - Angel's Egg (EAC,log,cue,flac,scans)\08 - Oily Way.wav

Peak level 98.8 %
Track quality 100.0 %
Test CRC 443038D4
Copy CRC 443038D4
Copy OK

Track 9

Filename E:\Z-POST\GONG - Angel's Egg (EAC,log,cue,flac,scans)\09 - Outer Temple.wav

Peak level 94.6 %
Track quality 99.8 %
Test CRC 01CA7757
Copy CRC 01CA7757
Copy OK

Track 10

Filename E:\Z-POST\GONG - Angel's Egg (EAC,log,cue,flac,scans)\10 - Inner Temple.wav

Peak level 98.8 %
Track quality 100.0 %
Test CRC D511EA6D
Copy CRC D511EA6D
Copy OK

Track 11

Filename E:\Z-POST\GONG - Angel's Egg (EAC,log,cue,flac,scans)\11 - Percolations.wav

Peak level 52.2 %
Track quality 100.0 %
Test CRC EFD2A083
Copy CRC EFD2A083
Copy OK

Track 12

Filename E:\Z-POST\GONG - Angel's Egg (EAC,log,cue,flac,scans)\12 - Love Is How Y Make It.wav

Peak level 98.8 %
Track quality 99.9 %
Test CRC D105E3E2
Copy CRC D105E3E2
Copy OK

Track 13

Filename E:\Z-POST\GONG - Angel's Egg (EAC,log,cue,flac,scans)\13 - I Niver Glid Before.wav

Peak level 98.8 %
Track quality 100.0 %
Test CRC E0E99F0C
Copy CRC E0E99F0C
Copy OK

Track 14

Filename E:\Z-POST\GONG - Angel's Egg (EAC,log,cue,flac,scans)\14 - Eat That Phone Book Coda.wav

Peak level 97.5 %
Track quality 100.0 %
Test CRC A82F51C9
Copy CRC A82F51C9
Copy OK

Track 15

Filename E:\Z-POST\GONG - Angel's Egg (EAC,log,cue,flac,scans)\15 - Other Side Of The Sky - Single Version.wav

Peak level 75.1 %
Track quality 100.0 %
Test CRC 624ABF3E
Copy CRC 624ABF3E
Copy OK

Track 16

Filename E:\Z-POST\GONG - Angel's Egg (EAC,log,cue,flac,scans)\16 - Ooby - Scooby Doomsday Or The D-Day Dj´s Got The D.D.T. Blues - Bonus.wav

Peak level 98.8 %
Track quality 100.0 %
Test CRC 8737BE89
Copy CRC 8737BE89
Copy OK

Track 17

Filename E:\Z-POST\GONG - Angel's Egg (EAC,log,cue,flac,scans)\17 - Love Is How Y Make It - 1973 Vocal Mix.wav

Peak level 50.5 %
Track quality 100.0 %
Test CRC 8FAB2CBC
Copy CRC 8FAB2CBC
Copy OK

Track 18

Filename E:\Z-POST\GONG - Angel's Egg (EAC,log,cue,flac,scans)\18 - Eat That Phone Book Coda - Early Version.wav

Peak level 98.8 %
Track quality 100.0 %
Test CRC F906A524
Copy CRC F906A524
Copy OK

No errors occurred

End of status report

Link:
http://www.megaupload.com/?d=AOSQQ552


GONG - Camembert Electrique
1971 | EAC+flac+log+cue+scans | 277.27 MB

Tracks :
1. Radio Gnome Prediction (0:27)
2. You Can't Kill Me (6:18)
3. I've Bin Stone Before (2:36)
4. Mister Long Shanks/O Mother/I Am Your Fantasy (5:57)
5. Dynamite/I Am Your Animal (4:32)
6. Wet Cheese Delirium (0:31)
7. Squeezing Sponges Over Policemen's Heads (0:12)
8. Fohat Digs Holes In Space (6:22)
9. And You Tried So Hard (4:38)
10. Tropical Fish/Selene (7:36)
11. Gnome The Second (0:27)

Log
Exact Audio Copy V0.99 prebeta 3 from 28. July 2007

EAC extraction logfile from 24. April 2009, 18:24

Gong / Camembert Electrique

Used drive : PIONEER DVD-RW DVR-112D Adapter: 0 ID: 0

Read mode : Secure
Utilize accurate stream : Yes
Defeat audio cache : Yes
Make use of C2 pointers : No

Read offset correction : 48
Overread into Lead-In and Lead-Out : No
Fill up missing offset samples with silence : Yes
Delete leading and trailing silent blocks : No
Null samples used in CRC calculations : Yes
Used interface : Native Win32 interface for Win NT & 2000
Gap handling : Appended to previous track

Used output format : User Defined Encoder
Selected bitrate : 896 kBit/s
Quality : High
Add ID3 tag : No
Command line compressor : C:\Program Files\Exact Audio Copy\FLAC\FLAC.EXE
Additional command line options : -V -8 -T "artist=%a" -T "title=%t" -T "album=%g" -T "date=%y" -T "tracknumber=%n" -T "genre=%m" %s


TOC of the extracted CD

Track | Start | Length | Start sector | End sector
---------------------------------------------------------
1 | 0:00.00 | 0:27.74 | 0 | 2098
2 | 0:27.74 | 6:20.00 | 2099 | 30598
3 | 6:47.74 | 2:36.60 | 30599 | 42358
4 | 9:24.59 | 5:57.55 | 42359 | 69188
5 | 15:22.39 | 4:32.65 | 69189 | 89653
6 | 19:55.29 | 0:32.06 | 89654 | 92059
7 | 20:27.35 | 0:13.03 | 92060 | 93037
8 | 20:40.38 | 6:22.36 | 93038 | 121723
9 | 27:02.74 | 4:38.65 | 121724 | 142638
10 | 31:41.64 | 7:36.27 | 142639 | 176865
11 | 39:18.16 | 0:26.18 | 176866 | 178833


Track 1

Filename E:\Z-POST\GONG - Camembert Electrique 1971 (EAC,log,cue,flac,scans)\01 - Radio Gnome.wav

Pre-gap length 0:00:02.00

Peak level 47.8 %
Track quality 100.0 %
Test CRC D7BFE5DC
Copy CRC D7BFE5DC
Copy OK

Track 2

Filename E:\Z-POST\GONG - Camembert Electrique 1971 (EAC,log,cue,flac,scans)\02 - You Can't Kill Me.wav

Peak level 94.4 %
Track quality 99.9 %
Test CRC 4BBF710F
Copy CRC 4BBF710F
Copy OK

Track 3

Filename E:\Z-POST\GONG - Camembert Electrique 1971 (EAC,log,cue,flac,scans)\03 - I've Bin Stone Before.wav

Peak level 72.4 %
Track quality 100.0 %
Test CRC 88E04139
Copy CRC 88E04139
Copy OK

Track 4

Filename E:\Z-POST\GONG - Camembert Electrique 1971 (EAC,log,cue,flac,scans)\04 - Mister Long Shanks- O Mother I Am Your Fantasy.wav

Peak level 94.4 %
Track quality 99.9 %
Test CRC C3EC69CF
Copy CRC C3EC69CF
Copy OK

Track 5

Filename E:\Z-POST\GONG - Camembert Electrique 1971 (EAC,log,cue,flac,scans)\05 - Dynamite- I Am Your Animal.wav

Peak level 94.4 %
Track quality 100.0 %
Test CRC 54FA579D
Copy CRC 54FA579D
Copy OK

Track 6

Filename E:\Z-POST\GONG - Camembert Electrique 1971 (EAC,log,cue,flac,scans)\06 - Wet Cheese Delirium.wav

Peak level 56.8 %
Track quality 99.6 %
Test CRC 9517A932
Copy CRC 9BDE4041
Copy OK

Track 7

Filename E:\Z-POST\GONG - Camembert Electrique 1971 (EAC,log,cue,flac,scans)\07 - Squeezing Sponges Over Policemen's Heads.wav

Peak level 32.1 %
Track quality 100.0 %
Test CRC 5188A953
Copy CRC 5188A953
Copy OK

Track 8

Filename E:\Z-POST\GONG - Camembert Electrique 1971 (EAC,log,cue,flac,scans)\08 - Fohat Digs Holes In Space.wav

Peak level 94.4 %
Track quality 99.9 %
Test CRC 6CC2A07A
Copy CRC 6CC2A07A
Copy OK

Track 9

Filename E:\Z-POST\GONG - Camembert Electrique 1971 (EAC,log,cue,flac,scans)\09 - Tried So Hard.wav

Peak level 94.4 %
Track quality 100.0 %
Test CRC B2201120
Copy CRC B2201120
Copy OK

Track 10

Filename E:\Z-POST\GONG - Camembert Electrique 1971 (EAC,log,cue,flac,scans)\10 - Tropical Fish- Selene.wav

Peak level 94.4 %
Track quality 100.0 %
Test CRC 46F60B36
Copy CRC 46F60B36
Copy OK

Track 11

Filename E:\Z-POST\GONG - Camembert Electrique 1971 (EAC,log,cue,flac,scans)\11 - Gnome The Second.wav

Peak level 51.0 %
Track quality 99.5 %
Test CRC EBD1E192
Copy CRC EBD1E192
Copy OK

No errors occurred

End of status report

Link :
http://www.megaupload.com/?d=NRVIPOPP


GONG - Continental Circus
1971 | EAC+flac+log+cue+scans | 412.72 MB

Tracks :
Side A:
1. Blues For Findlay
2. Continental Circus World
Side B:
3. What Do You Want?
4. Blues For Findlay (Instrumental)
Cd bonus:
5. Blues For Findlay (Live '72)
6. Flying Teapot (Live '72)

Log
Exact Audio Copy V0.99 prebeta 3 from 28. July 2007

EAC extraction logfile from 24. April 2009, 22:59

Gong / Continental Circus

Used drive : PIONEER DVD-RW DVR-112D Adapter: 0 ID: 0

Read mode : Secure
Utilize accurate stream : Yes
Defeat audio cache : Yes
Make use of C2 pointers : No

Read offset correction : 48
Overread into Lead-In and Lead-Out : No
Fill up missing offset samples with silence : Yes
Delete leading and trailing silent blocks : No
Null samples used in CRC calculations : Yes
Used interface : Native Win32 interface for Win NT & 2000
Gap handling : Appended to previous track

Used output format : User Defined Encoder
Selected bitrate : 896 kBit/s
Quality : High
Add ID3 tag : No
Command line compressor : C:\Program Files\Exact Audio Copy\FLAC\FLAC.EXE
Additional command line options : -V -8 -T "artist=%a" -T "title=%t" -T "album=%g" -T "date=%y" -T "tracknumber=%n" -T "genre=%m" %s


TOC of the extracted CD

Track | Start | Length | Start sector | End sector
---------------------------------------------------------
1 | 0:00.00 | 11:18.37 | 0 | 50886
2 | 11:18.37 | 4:12.68 | 50887 | 69854
3 | 15:31.30 | 9:05.17 | 69855 | 110746
4 | 24:36.47 | 9:40.15 | 110747 | 154261
5 | 34:16.62 | 11:25.30 | 154262 | 205666
6 | 45:42.17 | 27:41.70 | 205667 | 330311


Track 1

Filename E:\Z-POST\GONG - Continental Circus (EAC,log,cue,flac,scans)\01 - Blues For Findlay.wav

Pre-gap length 0:00:02.00

Peak level 89.9 %
Track quality 100.0 %
Test CRC 6F091185
Copy CRC 6F091185
Copy OK

Track 2

Filename E:\Z-POST\GONG - Continental Circus (EAC,log,cue,flac,scans)\02 - Continental Circus World.wav

Peak level 53.0 %
Track quality 100.0 %
Test CRC BF2A328A
Copy CRC BF2A328A
Copy OK

Track 3

Filename E:\Z-POST\GONG - Continental Circus (EAC,log,cue,flac,scans)\03 - What Do You Want.wav

Peak level 87.4 %
Track quality 99.9 %
Test CRC D84CF50B
Copy CRC D84CF50B
Copy OK

Track 4

Filename E:\Z-POST\GONG - Continental Circus (EAC,log,cue,flac,scans)\04 - Blues For Findlay (Instrumental).wav

Peak level 90.2 %
Track quality 100.0 %
Test CRC AFCD5A81
Copy CRC AFCD5A81
Copy OK

Track 5

Filename E:\Z-POST\GONG - Continental Circus (EAC,log,cue,flac,scans)\05 - Blues For Findlay (Live'72l).wav

Peak level 89.6 %
Track quality 100.0 %
Test CRC 8B9694EF
Copy CRC 8B9694EF
Copy OK

Track 6

Filename E:\Z-POST\GONG - Continental Circus (EAC,log,cue,flac,scans)\06 - Flying Teapot (Live'72).wav

Pre-gap length 0:00:00.01

Peak level 90.3 %
Track quality 100.0 %
Test CRC BAE1AF72
Copy CRC BAE1AF72
Copy OK

No errors occurred

End of status report

Link :
http://www.megaupload.com/?d=T3OK2Q9O



GONG - Expresso (Gazeuse!) - Expresso II
1978 | EAC+flac+log+cue+scans | 456.43 MB

Tracks :
Expresso:
1. Expresso (5:58)
2. Night Illusion (3:42)
3. Percolations, Part 1 + Part 2 (10:00)
4. Shadows Of (7:48)
5. Esnuria (8:00)
6. Mireille (4:10)
Expresso II:
1. Heavy Tune (6:22)
2. Golden Dilemma (4:51)
3. Sleepy (7:17)
4. Soli )7:37)
5. Boring (6:23)
6. Three Blind Mice (4:47)

Log
Exact Audio Copy V0.99 prebeta 3 from 28. July 2007

EAC extraction logfile from 24. April 2009, 19:09

Gong / Gazeuse (Expresso) - Expresso II

Used drive : PIONEER DVD-RW DVR-112D Adapter: 0 ID: 0

Read mode : Secure
Utilize accurate stream : Yes
Defeat audio cache : Yes
Make use of C2 pointers : No

Read offset correction : 48
Overread into Lead-In and Lead-Out : No
Fill up missing offset samples with silence : Yes
Delete leading and trailing silent blocks : No
Null samples used in CRC calculations : Yes
Used interface : Native Win32 interface for Win NT & 2000
Gap handling : Appended to previous track

Used output format : User Defined Encoder
Selected bitrate : 896 kBit/s
Quality : High
Add ID3 tag : No
Command line compressor : C:\Program Files\Exact Audio Copy\FLAC\FLAC.EXE
Additional command line options : -V -8 -T "artist=%a" -T "title=%t" -T "album=%g" -T "date=%y" -T "tracknumber=%n" -T "genre=%m" %s


TOC of the extracted CD

Track | Start | Length | Start sector | End sector
---------------------------------------------------------
1 | 0:00.00 | 5:58.31 | 0 | 26880
2 | 5:58.31 | 3:42.34 | 26881 | 43564
3 | 9:40.65 | 10:02.11 | 43565 | 88725
4 | 19:43.01 | 7:48.16 | 88726 | 123841
5 | 27:31.17 | 8:01.56 | 123842 | 159972
6 | 35:32.73 | 4:04.04 | 159973 | 178276
7 | 39:37.02 | 6:25.67 | 178277 | 207218
8 | 46:02.69 | 4:54.20 | 207219 | 229288
9 | 50:57.14 | 7:17.53 | 229289 | 262116
10 | 58:14.67 | 7:39.60 | 262117 | 296601
11 | 65:54.52 | 6:26.20 | 296602 | 325571
12 | 72:20.72 | 4:46.70 | 325572 | 347091


Track 1

Filename E:\Z-POST\GONG - Expresso - Expresso II (EAC,log,cue,flac,scans)\01 - Gong , Expresso.wav

Pre-gap length 0:00:02.00

Peak level 91.6 %
Track quality 100.0 %
Test CRC 9A72A6B8
Copy CRC 9A72A6B8
Copy OK

Track 2

Filename E:\Z-POST\GONG - Expresso - Expresso II (EAC,log,cue,flac,scans)\02 - Gong , Night Illusion.wav

Peak level 78.7 %
Track quality 100.0 %
Test CRC 7FAC7A47
Copy CRC 7FAC7A47
Copy OK

Track 3

Filename E:\Z-POST\GONG - Expresso - Expresso II (EAC,log,cue,flac,scans)\03 - Gong , Percolations, Pts. 1 & 2.wav

Peak level 99.4 %
Track quality 100.0 %
Test CRC 3322D8E5
Copy CRC 3322D8E5
Copy OK

Track 4

Filename E:\Z-POST\GONG - Expresso - Expresso II (EAC,log,cue,flac,scans)\04 - Gong , Shadows Of.wav

Peak level 86.2 %
Track quality 99.8 %
Test CRC 44862E6C
Copy CRC C75AFB5E
Copy OK

Track 5

Filename E:\Z-POST\GONG - Expresso - Expresso II (EAC,log,cue,flac,scans)\05 - Gong , Esnuria.wav

Peak level 88.2 %
Track quality 100.0 %
Test CRC 1D48E19D
Copy CRC 1D48E19D
Copy OK

Track 6

Filename E:\Z-POST\GONG - Expresso - Expresso II (EAC,log,cue,flac,scans)\06 - Gong , Mireille.wav

Peak level 29.7 %
Track quality 99.9 %
Test CRC C58DE401
Copy CRC C58DE401
Copy OK

Track 7

Filename E:\Z-POST\GONG - Expresso - Expresso II (EAC,log,cue,flac,scans)\07 - Gong , Heavy Tune.wav

Peak level 91.2 %
Track quality 100.0 %
Test CRC AC9EFFF8
Copy CRC AC9EFFF8
Copy OK

Track 8

Filename E:\Z-POST\GONG - Expresso - Expresso II (EAC,log,cue,flac,scans)\08 - Gong , Golden Dilemma.wav

Peak level 91.2 %
Track quality 100.0 %
Test CRC 4CEA6E1E
Copy CRC 4CEA6E1E
Copy OK

Track 9

Filename E:\Z-POST\GONG - Expresso - Expresso II (EAC,log,cue,flac,scans)\09 - Gong , Sleepy.wav

Peak level 91.2 %
Track quality 100.0 %
Test CRC 0EAFB388
Copy CRC 0EAFB388
Copy OK

Track 10

Filename E:\Z-POST\GONG - Expresso - Expresso II (EAC,log,cue,flac,scans)\10 - Gong , Soli.wav

Peak level 91.2 %
Track quality 100.0 %
Test CRC 7D3FBC71
Copy CRC 7D3FBC71
Copy OK

Track 11

Filename E:\Z-POST\GONG - Expresso - Expresso II (EAC,log,cue,flac,scans)\11 - Gong , Boring.wav

Peak level 91.2 %
Track quality 100.0 %
Test CRC D2144780
Copy CRC D2144780
Copy OK

Track 12

Filename E:\Z-POST\GONG - Expresso - Expresso II (EAC,log,cue,flac,scans)\12 - Gong , Three Blind Mice.wav

Peak level 91.2 %
Track quality 100.0 %
Test CRC AFBEE384
Copy CRC AFBEE384
Copy OK

No errors occurred

End of status report

Link :
http://www.megaupload.com/?d=53EDJ2L2


GONG - Live etc.
1977| EAC+flac+log+cue+scans | 486.6 MB

Tracks :
1. You can kill me (5:50)
2. Zero the hero & the witch spell (11:08)
3. Flying Teapot (6:28)
4. Dynamite/I am your animal (5:44)
5. 6/8 (3:53)
6. Est-ce que je suis? (4:12)
7. Radio gnome invisible (7:35)
8. Oily way (3:20)
9. Outer temple (1:05)
10. Inner temple (5:15)
11. Where have all the flowers gone (3:07)
12. Isle of everywhere (10:24)
13. Get it inner (2:31)
14. Master builder (5:56)
15. Flying teapot (1:55)

Log
Exact Audio Copy V0.99 prebeta 3 from 28. July 2007

EAC extraction logfile from 24. April 2009, 21:30

Gong / Live Etc

Used drive : PIONEER DVD-RW DVR-112D Adapter: 0 ID: 0

Read mode : Secure
Utilize accurate stream : Yes
Defeat audio cache : Yes
Make use of C2 pointers : No

Read offset correction : 48
Overread into Lead-In and Lead-Out : No
Fill up missing offset samples with silence : Yes
Delete leading and trailing silent blocks : No
Null samples used in CRC calculations : Yes
Used interface : Native Win32 interface for Win NT & 2000
Gap handling : Appended to previous track

Used output format : User Defined Encoder
Selected bitrate : 896 kBit/s
Quality : High
Add ID3 tag : No
Command line compressor : C:\Program Files\Exact Audio Copy\FLAC\FLAC.EXE
Additional command line options : -V -8 -T "artist=%a" -T "title=%t" -T "album=%g" -T "date=%y" -T "tracknumber=%n" -T "genre=%m" %s


TOC of the extracted CD

Track | Start | Length | Start sector | End sector
---------------------------------------------------------
1 | 0:00.00 | 5:53.27 | 0 | 26501
2 | 5:53.27 | 11:05.33 | 26502 | 76409
3 | 16:58.60 | 6:31.67 | 76410 | 105801
4 | 23:30.52 | 5:43.29 | 105802 | 131555
5 | 29:14.06 | 3:48.73 | 131556 | 148728
6 | 33:03.04 | 4:16.06 | 148729 | 167934
7 | 37:19.10 | 7:33.73 | 167935 | 201982
8 | 44:53.08 | 3:20.55 | 201983 | 217037
9 | 48:13.63 | 1:03.52 | 217038 | 221814
10 | 49:17.40 | 5:14.40 | 221815 | 245404
11 | 54:32.05 | 3:04.60 | 245405 | 259264
12 | 57:36.65 | 10:24.33 | 259265 | 306097
13 | 68:01.23 | 2:30.35 | 306098 | 317382
14 | 70:31.58 | 5:57.62 | 317383 | 344219
15 | 76:29.45 | 2:03.58 | 344220 | 353502


Track 1

Filename E:\Z-POST\GONG - Live etc. (EAC,log,cue,flac,scans)\01 - You Can't Kill Me.wav

Pre-gap length 0:00:02.00

Peak level 100.0 %
Track quality 100.0 %
Test CRC 150E609A
Copy CRC 150E609A
Copy OK

Track 2

Filename E:\Z-POST\GONG - Live etc. (EAC,log,cue,flac,scans)\02 - Zero The Hero & The Witch's Spell.wav

Peak level 100.0 %
Track quality 99.9 %
Test CRC DB9C9C6A
Copy CRC DB9C9C6A
Copy OK

Track 3

Filename E:\Z-POST\GONG - Live etc. (EAC,log,cue,flac,scans)\03 - Flying Teapot.wav

Peak level 99.8 %
Track quality 100.0 %
Test CRC 493E3A72
Copy CRC 493E3A72
Copy OK

Track 4

Filename E:\Z-POST\GONG - Live etc. (EAC,log,cue,flac,scans)\04 - Dynamite - I Am Your Animal.wav

Peak level 98.5 %
Track quality 100.0 %
Test CRC 0B6EF16A
Copy CRC 0B6EF16A
Copy OK

Track 5

Filename E:\Z-POST\GONG - Live etc. (EAC,log,cue,flac,scans)\05 - 6-8 Tune.wav

Peak level 88.5 %
Track quality 100.0 %
Test CRC DFB6C795
Copy CRC DFB6C795
Copy OK

Track 6

Filename E:\Z-POST\GONG - Live etc. (EAC,log,cue,flac,scans)\06 - Est-Ce Que Je Suis.wav

Peak level 85.9 %
Track quality 100.0 %
Test CRC 43E2749C
Copy CRC 43E2749C
Copy OK

Track 7

Filename E:\Z-POST\GONG - Live etc. (EAC,log,cue,flac,scans)\07 - Radio Gnome Invisible.wav

Peak level 100.0 %
Track quality 100.0 %
Test CRC A967BDDB
Copy CRC A967BDDB
Copy OK

Track 8

Filename E:\Z-POST\GONG - Live etc. (EAC,log,cue,flac,scans)\08 - Oily Way.wav

Peak level 99.6 %
Track quality 100.0 %
Test CRC 9BF53F18
Copy CRC 9BF53F18
Copy OK

Track 9

Filename E:\Z-POST\GONG - Live etc. (EAC,log,cue,flac,scans)\09 - Outer Temple.wav

Peak level 72.8 %
Track quality 100.0 %
Test CRC 957F92B8
Copy CRC 957F92B8
Copy OK

Track 10

Filename E:\Z-POST\GONG - Live etc. (EAC,log,cue,flac,scans)\10 - Inner Temple.wav

Peak level 87.7 %
Track quality 100.0 %
Test CRC D951AA36
Copy CRC D951AA36
Copy OK

Track 11

Filename E:\Z-POST\GONG - Live etc. (EAC,log,cue,flac,scans)\11 - Where Have All The Flowers Gone.wav

Peak level 100.0 %
Track quality 100.0 %
Test CRC DDB86C88
Copy CRC DDB86C88
Copy OK

Track 12

Filename E:\Z-POST\GONG - Live etc. (EAC,log,cue,flac,scans)\12 - Isle Of Everywhere.wav

Peak level 91.2 %
Track quality 100.0 %
Test CRC C8D8C057
Copy CRC C8D8C057
Copy OK

Track 13

Filename E:\Z-POST\GONG - Live etc. (EAC,log,cue,flac,scans)\13 - Get It Inner.wav

Peak level 91.2 %
Track quality 100.0 %
Test CRC 87DF7C77
Copy CRC 87DF7C77
Copy OK

Track 14

Filename E:\Z-POST\GONG - Live etc. (EAC,log,cue,flac,scans)\14 - Master Builder.wav

Peak level 87.0 %
Track quality 100.0 %
Test CRC 99850348
Copy CRC 99850348
Copy OK

Track 15

Filename E:\Z-POST\GONG - Live etc. (EAC,log,cue,flac,scans)\15 - Flying Teapot (Reprise).wav

Peak level 83.1 %
Track quality 100.0 %
Test CRC D86F3761
Copy CRC D86F3761
Copy OK

No errors occurred

End of status report

Link :
http://www.megaupload.com/?d=JQOKGZJ4


GONG - Live In Paris - Bataclan 1973
1973| EAC+flac+log+cue+scans | 432.95 MB

Tracks :
1. Introduction - Tout Va Bien (1:28)
2. Dynamite - I'm Your Animal (17:04)
3. Tic Toc ( 5:52)
4. Taliesin (6:58)
5. Inside Your Head (4:43)
6. You Can't Kill Me ( 7:04)
7. Flute Salad (4:26)
8. Pussy (5:55)
9. Radio Gnome I & II (7:00)
10. Flying Teapot (9:36)
11. Wet Drum Sandwich (Encore) (6:39)

Log
Exact Audio Copy V0.99 prebeta 3 from 28. July 2007

EAC extraction logfile from 25. April 2009, 15:23

Gong / Live Au Bataclan 1973

Used drive : PIONEER DVD-RW DVR-112D Adapter: 0 ID: 0

Read mode : Secure
Utilize accurate stream : Yes
Defeat audio cache : Yes
Make use of C2 pointers : No

Read offset correction : 48
Overread into Lead-In and Lead-Out : No
Fill up missing offset samples with silence : Yes
Delete leading and trailing silent blocks : No
Null samples used in CRC calculations : Yes
Used interface : Native Win32 interface for Win NT & 2000
Gap handling : Appended to previous track

Used output format : User Defined Encoder
Selected bitrate : 896 kBit/s
Quality : High
Add ID3 tag : No
Command line compressor : C:\Program Files\Exact Audio Copy\FLAC\FLAC.EXE
Additional command line options : -V -8 -T "artist=%a" -T "title=%t" -T "album=%g" -T "date=%y" -T "tracknumber=%n" -T "genre=%m" %s


TOC of the extracted CD

Track | Start | Length | Start sector | End sector
---------------------------------------------------------
1 | 0:00.00 | 1:28.07 | 0 | 6606
2 | 1:28.07 | 17:03.43 | 6607 | 83374
3 | 18:31.50 | 5:51.62 | 83375 | 109761
4 | 24:23.37 | 6:58.30 | 109762 | 141141
5 | 31:21.67 | 4:42.38 | 141142 | 162329
6 | 36:04.30 | 7:03.65 | 162330 | 194119
7 | 43:08.20 | 4:26.12 | 194120 | 214081
8 | 47:34.32 | 5:55.18 | 214082 | 240724
9 | 53:29.50 | 7:00.35 | 240725 | 272259
10 | 60:30.10 | 9:36.05 | 272260 | 315464
11 | 70:06.15 | 6:39.72 | 315465 | 345461


Track 1

Filename E:\Z-POST\GONG - Live In Paris - Bataclan 1973 (EAC,log,cue,flac,scans)\01 - Introduction - Tout Va Bien.wav

Pre-gap length 0:00:02.00

Peak level 41.6 %
Track quality 100.0 %
Test CRC E37DC021
Copy CRC E37DC021
Copy OK

Track 2

Filename E:\Z-POST\GONG - Live In Paris - Bataclan 1973 (EAC,log,cue,flac,scans)\02 - Dynamite - I'm Your Animal.wav

Peak level 90.9 %
Track quality 99.9 %
Test CRC E4FE97DB
Copy CRC 4FAE7D1B
Copy OK

Track 3

Filename E:\Z-POST\GONG - Live In Paris - Bataclan 1973 (EAC,log,cue,flac,scans)\03 - Tic Toc.wav

Peak level 100.0 %
Track quality 100.0 %
Test CRC 7A531099
Copy CRC 7A531099
Copy OK

Track 4

Filename E:\Z-POST\GONG - Live In Paris - Bataclan 1973 (EAC,log,cue,flac,scans)\04 - Taliesin.wav

Peak level 89.9 %
Track quality 99.8 %
Test CRC F36586EA
Copy CRC F36586EA
Copy OK

Track 5

Filename E:\Z-POST\GONG - Live In Paris - Bataclan 1973 (EAC,log,cue,flac,scans)\05 - Inside Your Head.wav

Peak level 97.6 %
Track quality 100.0 %
Test CRC 581AFB29
Copy CRC 581AFB29
Copy OK

Track 6

Filename E:\Z-POST\GONG - Live In Paris - Bataclan 1973 (EAC,log,cue,flac,scans)\06 - You Can't Kill Me.wav

Peak level 97.7 %
Track quality 100.0 %
Test CRC B9B07BF3
Copy CRC B9B07BF3
Copy OK

Track 7

Filename E:\Z-POST\GONG - Live In Paris - Bataclan 1973 (EAC,log,cue,flac,scans)\07 - Flute Salad.wav

Peak level 89.3 %
Track quality 100.0 %
Test CRC A20F7ADE
Copy CRC A20F7ADE
Copy OK

Track 8

Filename E:\Z-POST\GONG - Live In Paris - Bataclan 1973 (EAC,log,cue,flac,scans)\08 - Pussy.wav

Peak level 98.7 %
Track quality 100.0 %
Test CRC C5D72117
Copy CRC C5D72117
Copy OK

Track 9

Filename E:\Z-POST\GONG - Live In Paris - Bataclan 1973 (EAC,log,cue,flac,scans)\09 - Radio Gnome I & II.wav

Peak level 83.0 %
Track quality 100.0 %
Test CRC 4610D1B8
Copy CRC 4610D1B8
Copy OK

Track 10

Filename E:\Z-POST\GONG - Live In Paris - Bataclan 1973 (EAC,log,cue,flac,scans)\10 - Flying Teapot.wav

Peak level 84.0 %
Track quality 100.0 %
Test CRC 259783E8
Copy CRC 259783E8
Copy OK

Track 11

Filename E:\Z-POST\GONG - Live In Paris - Bataclan 1973 (EAC,log,cue,flac,scans)\11 - Wet Drum Sandwich (Encore).wav

Pre-gap length 0:00:00.01

Peak level 84.0 %
Track quality 100.0 %
Test CRC 740E40AB
Copy CRC 740E40AB
Copy OK

No errors occurred

End of status report

Link :
http://www.megaupload.com/?d=O47JYFVQ


GONG - Magick Brother
1969| EAC+flac+log+cue+scans | 303.46 MB

Tracks :
1. Mystic Sister / Magick Brother (6:16)
2. Glad To Sad To Say (2:55)
3. Rational Anthemn (4:10)
4. Chainstore Chant / Pretty Miss Tittty (5:19)
5. Fable Of A Fredfish / Hope You Feel Well (3:99)
6. Ego (3:54)
7. Gongsong (3:48)
8. Princess Dreaming (3:52)
9. 5 & 20 Schoolgirls (4:30)
10. Cos You Got Greenhair (5:02)

Log
Exact Audio Copy V0.99 prebeta 3 from 28. July 2007

EAC extraction logfile from 24. April 2009, 21:54

Gong / Magick Brother

Used drive : PIONEER DVD-RW DVR-112D Adapter: 0 ID: 0

Read mode : Secure
Utilize accurate stream : Yes
Defeat audio cache : Yes
Make use of C2 pointers : No

Read offset correction : 48
Overread into Lead-In and Lead-Out : No
Fill up missing offset samples with silence : Yes
Delete leading and trailing silent blocks : No
Null samples used in CRC calculations : Yes
Used interface : Native Win32 interface for Win NT & 2000
Gap handling : Appended to previous track

Used output format : User Defined Encoder
Selected bitrate : 896 kBit/s
Quality : High
Add ID3 tag : No
Command line compressor : C:\Program Files\Exact Audio Copy\FLAC\FLAC.EXE
Additional command line options : -V -8 -T "artist=%a" -T "title=%t" -T "album=%g" -T "date=%y" -T "tracknumber=%n" -T "genre=%m" %s


TOC of the extracted CD

Track | Start | Length | Start sector | End sector
---------------------------------------------------------
1 | 0:00.00 | 5:56.09 | 0 | 26708
2 | 5:56.09 | 4:09.73 | 26709 | 45456
3 | 10:06.07 | 3:44.50 | 45457 | 62306
4 | 13:50.57 | 4:47.48 | 62307 | 83879
5 | 18:38.30 | 4:27.74 | 83880 | 103978
6 | 23:06.29 | 3:59.66 | 103979 | 121969
7 | 27:06.20 | 4:13.17 | 121970 | 140961
8 | 31:19.37 | 2:53.49 | 140962 | 153985
9 | 34:13.11 | 4:36.35 | 153986 | 174720
10 | 38:49.46 | 5:04.20 | 174721 | 197540


Track 1

Filename E:\Z-POST\GONG - Magick Brother (EAC,log,cue,flac,scans)\01 - Mystic Sister- Magick Brother.wav

Pre-gap length 0:00:02.00

Peak level 88.9 %
Track quality 100.0 %
Test CRC F0E34C83
Copy CRC F0E34C83
Copy OK

Track 2

Filename E:\Z-POST\GONG - Magick Brother (EAC,log,cue,flac,scans)\02 - Glad To Say To Say.wav

Peak level 100.0 %
Track quality 99.9 %
Test CRC 77299FF0
Copy CRC 77299FF0
Copy OK

Track 3

Filename E:\Z-POST\GONG - Magick Brother (EAC,log,cue,flac,scans)\03 - Rational Anthem.wav

Peak level 100.0 %
Track quality 99.9 %
Test CRC A9D57DAB
Copy CRC A9D57DAB
Copy OK

Track 4

Filename E:\Z-POST\GONG - Magick Brother (EAC,log,cue,flac,scans)\04 - Chainstore Chant- Pretty Miss Titty.wav

Peak level 99.8 %
Track quality 99.8 %
Test CRC 86455408
Copy CRC 86455408
Copy OK

Track 5

Filename E:\Z-POST\GONG - Magick Brother (EAC,log,cue,flac,scans)\05 - Fable Of A Fredfish- Hope You Feel OK.wav

Peak level 100.0 %
Track quality 99.8 %
Test CRC 4A792DED
Copy CRC 4A792DED
Copy OK

Track 6

Filename E:\Z-POST\GONG - Magick Brother (EAC,log,cue,flac,scans)\06 - Ego.wav

Peak level 99.8 %
Track quality 99.8 %
Test CRC 9BCB9750
Copy CRC 9BCB9750
Copy OK

Track 7

Filename E:\Z-POST\GONG - Magick Brother (EAC,log,cue,flac,scans)\07 - Gong Song.wav

Peak level 99.8 %
Track quality 99.8 %
Test CRC D1A9B4A0
Copy CRC D1A9B4A0
Copy OK

Track 8

Filename E:\Z-POST\GONG - Magick Brother (EAC,log,cue,flac,scans)\08 - Princess Dreaming.wav

Peak level 99.2 %
Track quality 99.9 %
Test CRC EB6A5BA0
Copy CRC EB6A5BA0
Copy OK

Track 9

Filename E:\Z-POST\GONG - Magick Brother (EAC,log,cue,flac,scans)\09 - 5 & 20 Schoolgirls.wav

Peak level 93.4 %
Track quality 100.0 %
Test CRC C687A55E
Copy CRC C687A55E
Copy OK

Track 10

Filename E:\Z-POST\GONG - Magick Brother (EAC,log,cue,flac,scans)\10 - Cos You Got Green Hair.wav

Peak level 100.0 %
Track quality 100.0 %
Test CRC DC829103
Copy CRC DC829103
Copy OK

No errors occurred

End of status report

Link:
http://www.megaupload.com/?d=Z10U13JP


GONG - Pre-Modern Wireless-The Peel Sessions 1971-1974
1997| EAC+flac+log+cue+scans | 411.97 MB

Tracks :
1. Magick brother (4:49)
2. Clarence in wonderland (4:41)
3. Tropical fish/Selene (11:45)
4. You can't kill me (6:59)
5. Radio gnome direct broadcast (0:53)
6. Crystal machine (9:02)
7. Zero the hero and the orgasm witch (11:09)
8. Captain capricorn Dream Saloon/ Radio gnome invisible (12:62)
9. Oily way (11:16)

Log
Exact Audio Copy V0.99 prebeta 3 from 28. July 2007

EAC extraction logfile from 24. April 2009, 17:54

Gong / The Peel Sessions (1971->74 Pre-Modernist Wireless On Radio)

Used drive : PIONEER DVD-RW DVR-112D Adapter: 0 ID: 0

Read mode : Secure
Utilize accurate stream : Yes
Defeat audio cache : Yes
Make use of C2 pointers : No

Read offset correction : 48
Overread into Lead-In and Lead-Out : No
Fill up missing offset samples with silence : Yes
Delete leading and trailing silent blocks : No
Null samples used in CRC calculations : Yes
Used interface : Native Win32 interface for Win NT & 2000
Gap handling : Appended to previous track

Used output format : User Defined Encoder
Selected bitrate : 896 kBit/s
Quality : High
Add ID3 tag : No
Command line compressor : C:\Program Files\Exact Audio Copy\FLAC\FLAC.EXE
Additional command line options : -V -8 -T "artist=%a" -T "title=%t" -T "album=%g" -T "date=%y" -T "tracknumber=%n" -T "genre=%m" %s


TOC of the extracted CD

Track | Start | Length | Start sector | End sector
---------------------------------------------------------
1 | 0:00.00 | 4:49.08 | 0 | 21682
2 | 4:49.08 | 4:41.23 | 21683 | 42780
3 | 9:30.31 | 11:45.51 | 42781 | 95706
4 | 21:16.07 | 6:59.65 | 95707 | 127196
5 | 28:15.72 | 0:55.10 | 127197 | 131331
6 | 29:11.07 | 9:02.38 | 131332 | 172019
7 | 38:13.45 | 11:09.46 | 172020 | 222240
8 | 49:23.16 | 12:01.34 | 222241 | 276349
9 | 61:24.50 | 11:17.51 | 276350 | 327175


Track 1

Filename E:\Z-POST\GONG - Pre-Modern Wireless-The Peel Sessions 1971-1974 (EAC,log,cue,flac,scans)\01 - Magick Brother.wav

Pre-gap length 0:00:02.00

Peak level 65.6 %
Track quality 100.0 %
Test CRC FC7561E6
Copy CRC FC7561E6
Copy OK

Track 2

Filename E:\Z-POST\GONG - Pre-Modern Wireless-The Peel Sessions 1971-1974 (EAC,log,cue,flac,scans)\02 - Clarence In Wonderland.wav

Peak level 73.3 %
Track quality 100.0 %
Test CRC DBB28D1C
Copy CRC DBB28D1C
Copy OK

Track 3

Filename E:\Z-POST\GONG - Pre-Modern Wireless-The Peel Sessions 1971-1974 (EAC,log,cue,flac,scans)\03 - Tropical Fish - Selene.wav

Peak level 100.0 %
Track quality 100.0 %
Test CRC 997137D5
Copy CRC 997137D5
Copy OK

Track 4

Filename E:\Z-POST\GONG - Pre-Modern Wireless-The Peel Sessions 1971-1974 (EAC,log,cue,flac,scans)\04 - You Can't Kill Me.wav

Peak level 98.4 %
Track quality 99.9 %
Test CRC 90908F35
Copy CRC 90908F35
Copy OK

Track 5

Filename E:\Z-POST\GONG - Pre-Modern Wireless-The Peel Sessions 1971-1974 (EAC,log,cue,flac,scans)\05 - Radio Gnome Direct Broadcast.wav

Peak level 40.9 %
Track quality 99.8 %
Test CRC 03B11853
Copy CRC 03B11853
Copy OK

Track 6

Filename E:\Z-POST\GONG - Pre-Modern Wireless-The Peel Sessions 1971-1974 (EAC,log,cue,flac,scans)\06 - Crystal Machine.wav

Peak level 88.9 %
Track quality 100.0 %
Test CRC CA95A480
Copy CRC CA95A480
Copy OK

Track 7

Filename E:\Z-POST\GONG - Pre-Modern Wireless-The Peel Sessions 1971-1974 (EAC,log,cue,flac,scans)\07 - Zero The Hero And The Orgasm Witch.wav

Peak level 97.2 %
Track quality 100.0 %
Test CRC 99766813
Copy CRC 99766813
Copy OK

Track 8

Filename E:\Z-POST\GONG - Pre-Modern Wireless-The Peel Sessions 1971-1974 (EAC,log,cue,flac,scans)\08 - Captain Capricorns Dream Saloon - Radio Gnome Invisible.wav

Peak level 91.2 %
Track quality 100.0 %
Test CRC 67D1033C
Copy CRC 67D1033C
Copy OK

Track 9

Filename E:\Z-POST\GONG - Pre-Modern Wireless-The Peel Sessions 1971-1974 (EAC,log,cue,flac,scans)\09 - Oily Way.wav

Peak level 93.0 %
Track quality 100.0 %
Test CRC 18C04B85
Copy CRC 18C04B85
Copy OK

No errors occurred

End of status report

Link :
http://www.megaupload.com/?d=RSQVS2MJ


GONG - Shapeshifter
1992| EAC+flac+log+cue+scans | 400.56 MB

Tracks :
1. Gnomerique (0:07)
2. Shapeshifter (4:53)
3. Hymnalayas (7:38)
4. Dog-o-matic (3:00)
5. Spirit with me (2:27)
6. Mr. Albert Parkin (0:17)
7. Raindrop tablas (0:21)
8. Give my mother a soul cage (4:30)
9. Heaven's gate (4:49)
10. Snake tablas (0:34)
11. Loli (5:09)
12. Can you: you can (9:09)
13. Confiture de rhubarbier (1:18)
14. Parkin triumphant (0:06)
15. Elephant la tête (4:41)
16. Mother's gone (1:12)
17. Éléphant la cuisse (3:26)
18. White doves (5:24)
19. Gnomoutro (0:27)
20. Godess invocation om riff (12:58)

Log
Exact Audio Copy V0.99 prebeta 3 from 28. July 2007

EAC extraction logfile from 24. April 2009, 22:27

Gong / Shapeshifter

Used drive : PIONEER DVD-RW DVR-112D Adapter: 0 ID: 0

Read mode : Secure
Utilize accurate stream : Yes
Defeat audio cache : Yes
Make use of C2 pointers : No

Read offset correction : 48
Overread into Lead-In and Lead-Out : No
Fill up missing offset samples with silence : Yes
Delete leading and trailing silent blocks : No
Null samples used in CRC calculations : Yes
Used interface : Native Win32 interface for Win NT & 2000
Gap handling : Appended to previous track

Used output format : User Defined Encoder
Selected bitrate : 896 kBit/s
Quality : High
Add ID3 tag : No
Command line compressor : C:\Program Files\Exact Audio Copy\FLAC\FLAC.EXE
Additional command line options : -V -8 -T "artist=%a" -T "title=%t" -T "album=%g" -T "date=%y" -T "tracknumber=%n" -T "genre=%m" %s


TOC of the extracted CD

Track | Start | Length | Start sector | End sector
---------------------------------------------------------
1 | 0:00.00 | 0:07.22 | 0 | 546
2 | 0:07.22 | 4:53.15 | 547 | 22536
3 | 5:00.37 | 7:38.08 | 22537 | 56894
4 | 12:38.45 | 3:00.25 | 56895 | 70419
5 | 15:38.70 | 2:27.55 | 70420 | 81499
6 | 18:06.50 | 0:17.55 | 81500 | 82829
7 | 18:24.30 | 0:21.15 | 82830 | 84419
8 | 18:45.45 | 4:03.42 | 84420 | 102686
9 | 22:49.12 | 4:49.50 | 102687 | 124411
10 | 27:38.62 | 0:34.03 | 124412 | 126964
11 | 28:12.65 | 5:09.00 | 126965 | 150139
12 | 33:21.65 | 4:06.67 | 150140 | 168656
13 | 37:28.57 | 2:12.73 | 168657 | 178629
14 | 39:41.55 | 9:09.00 | 178630 | 219804
15 | 48:50.55 | 1:18.20 | 219805 | 225674
16 | 50:09.00 | 0:06.52 | 225675 | 226176
17 | 50:15.52 | 0:14.45 | 226177 | 227271
18 | 50:30.22 | 4:41.58 | 227272 | 248404
19 | 55:12.05 | 1:12.35 | 248405 | 253839
20 | 56:24.40 | 3:26.35 | 253840 | 269324
21 | 59:51.00 | 5:24.47 | 269325 | 293671
22 | 65:15.47 | 0:27.28 | 293672 | 295724


Track 1

Filename E:\Z-POST\GONG - Shapeshifter (EAC,log,cue,flac,scans)\01 - Gnomerique.wav

Pre-gap length 0:00:02.00

Peak level 55.6 %
Track quality 98.5 %
Test CRC 9755430F
Copy CRC 9755430F
Copy OK

Track 2

Filename E:\Z-POST\GONG - Shapeshifter (EAC,log,cue,flac,scans)\02 - Shapeshifter.wav

Peak level 99.4 %
Track quality 99.9 %
Test CRC BF9DDF5C
Copy CRC BF9DDF5C
Copy OK

Track 3

Filename E:\Z-POST\GONG - Shapeshifter (EAC,log,cue,flac,scans)\03 - Hymnalayas.wav

Peak level 100.0 %
Track quality 100.0 %
Test CRC 0BE44CC8
Copy CRC 0BE44CC8
Copy OK

Track 4

Filename E:\Z-POST\GONG - Shapeshifter (EAC,log,cue,flac,scans)\04 - Dog-O-Matic.wav

Peak level 98.9 %
Track quality 99.9 %
Test CRC AE8B6306
Copy CRC AE8B6306
Copy OK

Track 5

Filename E:\Z-POST\GONG - Shapeshifter (EAC,log,cue,flac,scans)\05 - Spirit With Me.wav

Peak level 63.8 %
Track quality 99.9 %
Test CRC 6BF44BCD
Copy CRC C8B52D4F
Copy OK

Track 6

Filename E:\Z-POST\GONG - Shapeshifter (EAC,log,cue,flac,scans)\06 - Mr Albert Parkin.wav

Peak level 33.4 %
Track quality 100.0 %
Test CRC 2A9DAA76
Copy CRC 2A9DAA76
Copy OK

Track 7

Filename E:\Z-POST\GONG - Shapeshifter (EAC,log,cue,flac,scans)\07 - Raindrop Tablas.wav

Peak level 71.1 %
Track quality 100.0 %
Test CRC C6B0A92A
Copy CRC C6B0A92A
Copy OK

Track 8

Filename E:\Z-POST\GONG - Shapeshifter (EAC,log,cue,flac,scans)\08 - Give My Mother A Soul Call.wav

Peak level 84.1 %
Track quality 100.0 %
Test CRC 52A2D21E
Copy CRC 52A2D21E
Copy OK

Track 9

Filename E:\Z-POST\GONG - Shapeshifter (EAC,log,cue,flac,scans)\09 - Heaven's Gate.wav

Peak level 95.9 %
Track quality 100.0 %
Test CRC 9FBB415B
Copy CRC 9FBB415B
Copy OK

Track 10

Filename E:\Z-POST\GONG - Shapeshifter (EAC,log,cue,flac,scans)\10 - Snake Tablas.wav

Peak level 59.2 %
Track quality 99.2 %
Test CRC 774DB97D
Copy CRC 774DB97D
Copy OK

Track 11

Filename E:\Z-POST\GONG - Shapeshifter (EAC,log,cue,flac,scans)\11 - Loli.wav

Peak level 90.4 %
Track quality 99.8 %
Test CRC 8F9D62A4
Copy CRC 8F9D62A4
Copy OK

Track 12

Filename E:\Z-POST\GONG - Shapeshifter (EAC,log,cue,flac,scans)\12 - La Bas La Bas.wav

Peak level 98.6 %
Track quality 100.0 %
Test CRC EDA0B095
Copy CRC EDA0B095
Copy OK

Track 13

Filename E:\Z-POST\GONG - Shapeshifter (EAC,log,cue,flac,scans)\13 - I Gotta Donkey.wav

Peak level 89.2 %
Track quality 100.0 %
Test CRC 9B9118BD
Copy CRC 9B9118BD
Copy OK

Track 14

Filename E:\Z-POST\GONG - Shapeshifter (EAC,log,cue,flac,scans)\14 - Can You - You Can.wav

Peak level 90.4 %
Track quality 100.0 %
Test CRC 9410D0D0
Copy CRC 9410D0D0
Copy OK

Track 15

Filename E:\Z-POST\GONG - Shapeshifter (EAC,log,cue,flac,scans)\15 - Confiture De Rhubarbier.wav

Peak level 58.7 %
Track quality 100.0 %
Test CRC F6858785
Copy CRC F6858785
Copy OK

Track 16

Filename E:\Z-POST\GONG - Shapeshifter (EAC,log,cue,flac,scans)\16 - Parkin Triumphant.wav

Peak level 39.3 %
Track quality 100.0 %
Test CRC 49A2F681
Copy CRC 49A2F681
Copy OK

Track 17

Filename E:\Z-POST\GONG - Shapeshifter (EAC,log,cue,flac,scans)\17 - Longhaired Tablas.wav

Peak level 72.2 %
Track quality 99.2 %
Test CRC C03953AF
Copy CRC C03953AF
Copy OK

Track 18

Filename E:\Z-POST\GONG - Shapeshifter (EAC,log,cue,flac,scans)\18 - Elephant La Tete.wav

Peak level 80.6 %
Track quality 100.0 %
Test CRC AED10BBA
Copy CRC AED10BBA
Copy OK

Track 19

Filename E:\Z-POST\GONG - Shapeshifter (EAC,log,cue,flac,scans)\19 - Mother's Gone.wav

Peak level 85.7 %
Track quality 100.0 %
Test CRC A93CEBFA
Copy CRC A93CEBFA
Copy OK

Track 20

Filename E:\Z-POST\GONG - Shapeshifter (EAC,log,cue,flac,scans)\20 - Elephant La Cuisse.wav

Peak level 93.6 %
Track quality 99.9 %
Test CRC 39445739
Copy CRC 0499891B
Copy OK

Track 21

Filename E:\Z-POST\GONG - Shapeshifter (EAC,log,cue,flac,scans)\21 - White Doves.wav

Peak level 79.7 %
Track quality 100.0 %
Test CRC 2956026C
Copy CRC 2956026C
Copy OK

Track 22

Filename E:\Z-POST\GONG - Shapeshifter (EAC,log,cue,flac,scans)\22 - Gnomoutro.wav

Peak level 22.7 %
Track quality 100.0 %
Test CRC B551E3D0
Copy CRC B551E3D0
Copy OK

No errors occurred

End of status report

Link :
http://www.megaupload.com/?d=X8EH9RQ4


GONG - You - Radio Gnome Invisible - Pt. 3
1974| EAC+flac+log+cue+scans | 288.51 MB

Tracks :
1. Thoughts for naught (1:30)
2. A P.H.P.'s advice (1:37)
3. Magick mother invocation (2:11)
4. Master builder (6:09)
5. A sprinkling of clouds (8:42)
6. Perfect mystery (2:25)
7. The isle of everywhere (10:21)
8. You never blow yr trip forever (11:24)
9. A PHP's Advice [alternate version] (1:47)

Log
Exact Audio Copy V0.99 prebeta 3 from 28. July 2007

EAC extraction logfile from 25. April 2009, 15:52

Gong / You

Used drive : PIONEER DVD-RW DVR-112D Adapter: 0 ID: 0

Read mode : Secure
Utilize accurate stream : Yes
Defeat audio cache : Yes
Make use of C2 pointers : No

Read offset correction : 48
Overread into Lead-In and Lead-Out : No
Fill up missing offset samples with silence : Yes
Delete leading and trailing silent blocks : No
Null samples used in CRC calculations : Yes
Used interface : Native Win32 interface for Win NT & 2000
Gap handling : Appended to previous track

Used output format : User Defined Encoder
Selected bitrate : 896 kBit/s
Quality : High
Add ID3 tag : No
Command line compressor : C:\Program Files\Exact Audio Copy\FLAC\FLAC.EXE
Additional command line options : -V -8 -T "artist=%a" -T "title=%t" -T "album=%g" -T "date=%y" -T "tracknumber=%n" -T "genre=%m" %s


TOC of the extracted CD

Track | Start | Length | Start sector | End sector
---------------------------------------------------------
1 | 0:00.00 | 1:33.14 | 0 | 6988
2 | 1:33.14 | 1:45.28 | 6989 | 14891
3 | 3:18.42 | 1:57.17 | 14892 | 23683
4 | 5:15.59 | 6:20.36 | 23684 | 52219
5 | 11:36.20 | 8:57.43 | 52220 | 92537
6 | 20:33.63 | 2:28.74 | 92538 | 103711
7 | 23:02.62 | 10:21.43 | 103712 | 150329
8 | 33:24.30 | 11:32.27 | 150330 | 202256
9 | 44:56.57 | 1:47.53 | 202257 | 210334


Track 1

Filename E:\Z-POST\GONG - You (Remastered with bonus track) (EAC,log,cue,flac,scans)\01 - Thoughts For Naught.wav

Pre-gap length 0:00:02.00

Peak level 58.6 %
Track quality 100.0 %
Test CRC E0738F44
Copy CRC E0738F44
Copy OK

Track 2

Filename E:\Z-POST\GONG - You (Remastered with bonus track) (EAC,log,cue,flac,scans)\02 - A PHP's Advice.wav

Peak level 98.8 %
Track quality 100.0 %
Test CRC 1315C8CA
Copy CRC 1315C8CA
Copy OK

Track 3

Filename E:\Z-POST\GONG - You (Remastered with bonus track) (EAC,log,cue,flac,scans)\03 - Magick Mother Invocation.wav

Peak level 36.1 %
Track quality 99.9 %
Test CRC 13515B1E
Copy CRC 13515B1E
Copy OK

Track 4

Filename E:\Z-POST\GONG - You (Remastered with bonus track) (EAC,log,cue,flac,scans)\04 - Master Builder.wav

Peak level 98.8 %
Track quality 100.0 %
Test CRC F9D5BD6F
Copy CRC F9D5BD6F
Copy OK

Track 5

Filename E:\Z-POST\GONG - You (Remastered with bonus track) (EAC,log,cue,flac,scans)\05 - A Sprinkling Of Clouds.wav

Peak level 98.8 %
Track quality 99.9 %
Test CRC 83988C4B
Copy CRC 83988C4B
Copy OK

Track 6

Filename E:\Z-POST\GONG - You (Remastered with bonus track) (EAC,log,cue,flac,scans)\06 - Perfect Mystery.wav

Peak level 98.8 %
Track quality 99.9 %
Test CRC FC9A5BB4
Copy CRC FC9A5BB4
Copy OK

Track 7

Filename E:\Z-POST\GONG - You (Remastered with bonus track) (EAC,log,cue,flac,scans)\07 - Isle Of Everywhere.wav

Peak level 98.8 %
Track quality 100.0 %
Test CRC B68CFE82
Copy CRC B68CFE82
Copy OK

Track 8

Filename E:\Z-POST\GONG - You (Remastered with bonus track) (EAC,log,cue,flac,scans)\08 - You Never Blow Your Trip Forever.wav

Peak level 98.8 %
Track quality 99.9 %
Test CRC C00E3136
Copy CRC C00E3136
Copy OK

Track 9

Filename E:\Z-POST\GONG - You (Remastered with bonus track) (EAC,log,cue,flac,scans)\09 - A PHP's Advice [alternate version].wav

Peak level 87.2 %
Track quality 100.0 %
Test CRC 21D10427
Copy CRC 21D10427
Copy OK

No errors occurred

End of status report

Link:
http://www.megaupload.com/?d=78ZPZMMF


GONG with DASHIELL HEDAYAT - Obsolete
1971| EAC+flac+log+cue+scans | 242.53 MB

Tracks :
1. Chrysler (6:40)
2. Fille de l'Ombre (2:18)
3. Long Song for Zelda (7:45)
4. Cielo Drive (21:08)

Log
Exact Audio Copy V0.99 prebeta 3 from 28. July 2007

EAC extraction logfile from 24. April 2009, 16:53

Dashiell Hedayat (with Gong) / Obsolete

Used drive : PIONEER DVD-RW DVR-112D Adapter: 0 ID: 0

Read mode : Secure
Utilize accurate stream : Yes
Defeat audio cache : Yes
Make use of C2 pointers : No

Read offset correction : 48
Overread into Lead-In and Lead-Out : No
Fill up missing offset samples with silence : Yes
Delete leading and trailing silent blocks : No
Null samples used in CRC calculations : Yes
Used interface : Native Win32 interface for Win NT & 2000
Gap handling : Appended to previous track

Used output format : User Defined Encoder
Selected bitrate : 896 kBit/s
Quality : High
Add ID3 tag : No
Command line compressor : C:\Program Files\Exact Audio Copy\FLAC\FLAC.EXE
Additional command line options : -V -8 -T "artist=%a" -T "title=%t" -T "album=%g" -T "date=%y" -T "tracknumber=%n" -T "genre=%m" %s


TOC of the extracted CD

Track | Start | Length | Start sector | End sector
---------------------------------------------------------
1 | 0:00.00 | 6:40.02 | 0 | 30001
2 | 6:40.02 | 2:18.01 | 30002 | 40352
3 | 8:58.03 | 7:45.01 | 40353 | 75228
4 | 16:43.04 | 21:08.63 | 75229 | 170391


Track 1

Filename E:\Z-POST\GONG with DASHIELL HEDAYAT - Obsolete (1971) (EAC,log,cue,flac,scans)\01 - Chrysler.wav

Pre-gap length 0:00:02.00

Peak level 99.8 %
Track quality 100.0 %
Test CRC 2A94544A
Copy CRC 2A94544A
Copy OK

Track 2

Filename E:\Z-POST\GONG with DASHIELL HEDAYAT - Obsolete (1971) (EAC,log,cue,flac,scans)\02 - Fille de l'Ombre.wav

Peak level 89.9 %
Track quality 100.0 %
Test CRC FF0A2A32
Copy CRC FF0A2A32
Copy OK

Track 3

Filename E:\Z-POST\GONG with DASHIELL HEDAYAT - Obsolete (1971) (EAC,log,cue,flac,scans)\03 - Long Song for Zelda.wav

Peak level 99.7 %
Track quality 100.0 %
Test CRC 95EC6797
Copy CRC 95EC6797
Copy OK

Track 4

Filename E:\Z-POST\GONG with DASHIELL HEDAYAT - Obsolete (1971) (EAC,log,cue,flac,scans)\04 - Cielo Drive.wav

Peak level 99.8 %
Track quality 99.9 %
Test CRC E077EE44
Copy CRC E077EE44
Copy OK

No errors occurred

End of status report

Link :
http://www.megaupload.com/?d=CBDW1DDM


HERE & NOW - Give & Take
1978| EAC+flac+log+cue+scans + 5 singles @ mp3 (320)| 345.64 MB
What you'll hear at beginning of track 11 isn't error - it's just a joke

Tracks: @ flac
01. what you see is what you are (5:23)
02. nearer now (5:42)
03. grate fire of london (7:37)
04. this time (4:45)
05. seventies youth (4:59)
06. improvisation (11:05)
+ singles : @ mp3 (320)
07. floating anarchy radio (4:24)
08. addicted (7:27)
09. a dog in hell (7:58)
10. end of the beginning (3:27)
11. choke a koala (4:49)

Log
Exact Audio Copy V0.99 prebeta 3 from 28. July 2007

EAC extraction logfile from 29. August 2008, 13:53

Here And Now / Give and Take

Used drive : PIONEER DVD-RW DVR-112D Adapter: 2 ID: 0

Read mode : Secure
Utilize accurate stream : Yes
Defeat audio cache : Yes
Make use of C2 pointers : No

Read offset correction : 48
Overread into Lead-In and Lead-Out : No
Fill up missing offset samples with silence : Yes
Delete leading and trailing silent blocks : No
Null samples used in CRC calculations : Yes
Used interface : Native Win32 interface for Win NT & 2000
Gap handling : Appended to previous track

Used output format : User Defined Encoder
Selected bitrate : 896 kBit/s
Quality : High
Add ID3 tag : No
Command line compressor : C:\Program Files\Exact Audio Copy\FLAC\FLAC.EXE
Additional command line options : -V -8 -T "artist=%a" -T "title=%t" -T "album=%g" -T "date=%y" -T "tracknumber=%n" -T "genre=%m" %s


TOC of the extracted CD

Track | Start | Length | Start sector | End sector
---------------------------------------------------------
1 | 0:00.00 | 5:23.22 | 0 | 24246
2 | 5:23.22 | 5:42.25 | 24247 | 49921
3 | 11:05.47 | 7:33.66 | 49922 | 83962
4 | 18:39.38 | 4:46.19 | 83963 | 105431
5 | 23:25.57 | 5:00.50 | 105432 | 127981
6 | 28:26.32 | 11:05.46 | 127982 | 177902


Track 1

Filename E:\Z-POST\HERE & NOW - Give & Take (1978) (EAC, log, cue, WAV, scans)\HERE & NOW - Give & Take - CD-RIP\01 - What You See Is What You Get.wav

Pre-gap length 0:00:02.00

Peak level 90.5 %
Track quality 100.0 %
Test CRC 3AFC967B
Copy CRC 3AFC967B
Copy OK

Track 2

Filename E:\Z-POST\HERE & NOW - Give & Take (1978) (EAC, log, cue, WAV, scans)\HERE & NOW - Give & Take - CD-RIP\02 - Nearer Now.wav

Pre-gap length 0:00:02.85

Peak level 100.0 %
Track quality 99.9 %
Test CRC E7E4CBF7
Copy CRC E7E4CBF7
Copy OK

Track 3

Filename E:\Z-POST\HERE & NOW - Give & Take (1978) (EAC, log, cue, WAV, scans)\HERE & NOW - Give & Take - CD-RIP\03 - Grate Fire of London.wav

Pre-gap length 0:00:02.85

Peak level 86.6 %
Track quality 99.9 %
Test CRC ACE5F774
Copy CRC ACE5F774
Copy OK

Track 4

Filename E:\Z-POST\HERE & NOW - Give & Take (1978) (EAC, log, cue, WAV, scans)\HERE & NOW - Give & Take - CD-RIP\04 - This Time.wav

Pre-gap length 0:00:02.85

Peak level 98.4 %
Track quality 99.9 %
Test CRC 4DAFB482
Copy CRC 4DAFB482
Copy OK

Track 5

Filename E:\Z-POST\HERE & NOW - Give & Take (1978) (EAC, log, cue, WAV, scans)\HERE & NOW - Give & Take - CD-RIP\05 - Seventies Youth.wav

Pre-gap length 0:00:02.85

Peak level 78.5 %
Track quality 100.0 %
Test CRC 81F7B1FF
Copy CRC 81F7B1FF
Copy OK

Track 6

Filename E:\Z-POST\HERE & NOW - Give & Take (1978) (EAC, log, cue, WAV, scans)\HERE & NOW - Give & Take - CD-RIP\06 - Improvisation.wav

Pre-gap length 0:00:02.85

Peak level 94.4 %
Track quality 100.0 %
Test CRC 9829D610
Copy CRC 9829D610
Copy OK

No errors occurred

End of status report

Link :
http://www.megaupload.com/?d=N29HY5AK


HERE AND NOW - Gospel of Free (Live & Jamming 1976-1978)
1999| EAC+flac+log+cue+scans | 398.61 MB
32 page booklet of archive photos & text included
Thanks to HenryMorgan for this one

Tracks :
1. Hairy Barber (8:34) 1978
2. Fredest Air Travels (7:40) 1977
3. Bom Shiva Shanka (11:06) 1976
4. Soviet Kommercial Radio (6:33) 1976
5. Strawberry (9:29) 1978
6. Summer's Coming (16:11) 1978

Log
Exact Audio Copy V0.99 prebeta 4 from 23. January 2008

EAC extraction logfile from 10. April 2009, 13:24

Here and Now / Gospel of Free

Used drive : TSSTcorpCDDVDW SH-S202J Adapter: 0 ID: 0

Read mode : Secure
Utilize accurate stream : Yes
Defeat audio cache : Yes
Make use of C2 pointers : No

Read offset correction : 6
Overread into Lead-In and Lead-Out : No
Fill up missing offset samples with silence : Yes
Delete leading and trailing silent blocks : No
Null samples used in CRC calculations : Yes
Used interface : Native Win32 interface for Win NT & 2000

Used output format : User Defined Encoder
Selected bitrate : 320 kBit/s
Quality : High
Add ID3 tag : No
Command line compressor : C:\Program Files\Exact Audio Copy\flac.exe
Additional command line options : -V -8 -T "ARTIST=%a" -T "TITLE=%t" -T "ALBUM=%g" -T "DATE=%y" -T "TRACKNUMBER=%n" -T "GENRE=%m" %s


TOC of the extracted CD

Track | Start | Length | Start sector | End sector
---------------------------------------------------------
1 | 0:00.00 | 8:33.43 | 0 | 38517
2 | 8:33.43 | 7:40.25 | 38518 | 73042
3 | 16:13.68 | 11:05.39 | 73043 | 122956
4 | 27:19.32 | 6:33.10 | 122957 | 152441
5 | 33:52.42 | 9:29.04 | 152442 | 195120
6 | 43:21.46 | 16:11.23 | 195121 | 267968


Range status and errors

Selected range

Filename H:\CD Images\Freakbeat\Here and Now - Gospel of Free.wav

Peak level 99.2 %
Range quality 100.0 %
Test CRC 1742A149
Copy CRC 1742A149
Copy OK

No errors occurred


AccurateRip summary

Track 1 not present in database
Track 2 not present in database
Track 3 not present in database
Track 4 not present in database
Track 5 not present in database
Track 6 not present in database

None of the tracks are present in the AccurateRip database

End of status report

Link :
http://www.megaupload.com/?d=TCNLZXIZ


DAEVID ALLEN - Eat Me Baby I'm A Jelly Bean (1998)
1998 | EAC+log+cue+flac+scans | 291 MB
Brilliantly played quirky jazz standards

Tracks :
1. So What?
2. Gold Top
3. I Can't Get Started
4. Slow Boat
5. It Ain't Necessarily So
6. My Funny Valentine
7. Au Privave
8. St Petersburg Café
9. Salt Peanuts

Log
Exact Audio Copy V0.99 prebeta 3 from 28. July 2007

EAC extraction logfile from 4. March 2009, 13:06

Daevid Allen / Eat Me Baby I'm a Jelly Bean

Used drive : PIONEER DVD-RW DVR-112D Adapter: 0 ID: 0

Read mode : Secure
Utilize accurate stream : Yes
Defeat audio cache : Yes
Make use of C2 pointers : No

Read offset correction : 48
Overread into Lead-In and Lead-Out : No
Fill up missing offset samples with silence : Yes
Delete leading and trailing silent blocks : No
Null samples used in CRC calculations : Yes
Used interface : Native Win32 interface for Win NT & 2000
Gap handling : Appended to previous track

Used output format : User Defined Encoder
Selected bitrate : 896 kBit/s
Quality : High
Add ID3 tag : No
Command line compressor : C:\Program Files\Exact Audio Copy\FLAC\FLAC.EXE
Additional command line options : -V -8 -T "artist=%a" -T "title=%t" -T "album=%g" -T "date=%y" -T "tracknumber=%n" -T "genre=%m" %s


TOC of the extracted CD

Track | Start | Length | Start sector | End sector
---------------------------------------------------------
1 | 0:00.00 | 5:03.60 | 0 | 22784
2 | 5:03.60 | 3:42.50 | 22785 | 39484
3 | 8:46.35 | 6:09.50 | 39485 | 67209
4 | 14:56.10 | 5:45.63 | 67210 | 93147
5 | 20:41.73 | 5:49.65 | 93148 | 119387
6 | 26:31.63 | 8:52.35 | 119388 | 159322
7 | 35:24.23 | 4:13.17 | 159323 | 178314
8 | 39:37.40 | 4:14.60 | 178315 | 197424
9 | 43:52.25 | 2:25.47 | 197425 | 208346


Track 1

Filename E:\Z-POST\DAEVID ALLEN - Eat Me Baby I'm A Jelly Bean 1998 (EAC,log,cue,flac,scans)\01 - So What.wav

Pre-gap length 0:00:02.00

Peak level 100.0 %
Track quality 100.0 %
Test CRC 327A86F5
Copy CRC 327A86F5
Copy OK

Track 2

Filename E:\Z-POST\DAEVID ALLEN - Eat Me Baby I'm A Jelly Bean 1998 (EAC,log,cue,flac,scans)\02 - Gold Top.wav

Pre-gap length 0:00:02.13

Peak level 100.0 %
Track quality 100.0 %
Test CRC D25BA8D8
Copy CRC D25BA8D8
Copy OK

Track 3

Filename E:\Z-POST\DAEVID ALLEN - Eat Me Baby I'm A Jelly Bean 1998 (EAC,log,cue,flac,scans)\03 - I Can't Get Started.wav

Pre-gap length 0:00:01.77

Peak level 100.0 %
Track quality 99.6 %
Test CRC 85CF14D6
Copy CRC 85CF14D6
Copy OK

Track 4

Filename E:\Z-POST\DAEVID ALLEN - Eat Me Baby I'm A Jelly Bean 1998 (EAC,log,cue,flac,scans)\04 - Slow Boat.wav

Pre-gap length 0:00:01.80

Peak level 100.0 %
Track quality 100.0 %
Test CRC B89F5676
Copy CRC B89F5676
Copy OK

Track 5

Filename E:\Z-POST\DAEVID ALLEN - Eat Me Baby I'm A Jelly Bean 1998 (EAC,log,cue,flac,scans)\05 - It Ain't Necessarily So.wav

Pre-gap length 0:00:02.30

Peak level 100.0 %
Track quality 99.9 %
Test CRC 5446A440
Copy CRC 5446A440
Copy OK

Track 6

Filename E:\Z-POST\DAEVID ALLEN - Eat Me Baby I'm A Jelly Bean 1998 (EAC,log,cue,flac,scans)\06 - My Funny Valentine.wav

Pre-gap length 0:00:02.44

Peak level 100.0 %
Track quality 99.9 %
Test CRC DA1CF39D
Copy CRC DA1CF39D
Copy OK

Track 7

Filename E:\Z-POST\DAEVID ALLEN - Eat Me Baby I'm A Jelly Bean 1998 (EAC,log,cue,flac,scans)\07 - Au Privave.wav

Pre-gap length 0:00:01.90

Peak level 100.0 %
Track quality 99.7 %
Test CRC 757A14FD
Copy CRC 757A14FD
Copy OK

Track 8

Filename E:\Z-POST\DAEVID ALLEN - Eat Me Baby I'm A Jelly Bean 1998 (EAC,log,cue,flac,scans)\08 - St Petersburg Cafe.wav

Pre-gap length 0:00:01.73

Peak level 99.9 %
Track quality 100.0 %
Test CRC 0603283B
Copy CRC 0603283B
Copy OK

Track 9

Filename E:\Z-POST\DAEVID ALLEN - Eat Me Baby I'm A Jelly Bean 1998 (EAC,log,cue,flac,scans)\09 - Salt Peanuts.wav

Pre-gap length 0:00:01.73

Peak level 100.0 %
Track quality 100.0 %
Test CRC E9DF9B7D
Copy CRC E9DF9B7D
Copy OK

No errors occurred

End of status report

Link :
http://www.megaupload.com/?d=7D89AYL7


GONG - Live in Sherwood Forest '75
2005 | EAC+log+cue+wv+scans | 675.7 MB

Tracks :
1. Master Builder (6:08)
2. Chandra (6:31)
3. Aftaglid (16:37)
4. Cat in Clark's Shoes (9:03)
5. Wingful of Eyes (7:41)
6. The Salmon Song (11:10)
7. Isle of Everywhere (12:51)
8. Shamal (8:35)

Log
Exact Audio Copy V0.99 prebeta 4 from 23. January 2008

EAC extraction logfile from 24. October 2008, 14:48

Gong / Live Sherwood Forest '75

Used drive : _NEC DVD_RW ND-3500AG Adapter: 0 ID: 0

Read mode : Secure
Utilize accurate stream : Yes
Defeat audio cache : Yes
Make use of C2 pointers : No

Read offset correction : 48
Overread into Lead-In and Lead-Out : No
Fill up missing offset samples with silence : Yes
Delete leading and trailing silent blocks : No
Null samples used in CRC calculations : Yes
Used interface : Installed external ASPI interface

Used output format : Internal WAV Routines
Sample format : 44.100 Hz; 16 Bit; Stereo


TOC of the extracted CD

Track | Start | Length | Start sector | End sector
---------------------------------------------------------
1 | 0:00.00 | 6:07.42 | 0 | 27566
2 | 6:07.42 | 6:31.18 | 27567 | 56909
3 | 12:38.60 | 16:36.44 | 56910 | 131653
4 | 29:15.29 | 9:03.27 | 131654 | 172405
5 | 38:18.56 | 7:40.61 | 172406 | 206966
6 | 45:59.42 | 11:09.64 | 206967 | 257205
7 | 57:09.31 | 12:50.70 | 257206 | 315025
8 | 70:00.26 | 8:35.00 | 315026 | 353650


Range status and errors

Selected range

Filename D:\WAV\ForHQshare\Gong - Live Sherwood Forest '75.wav

Peak level 100.0 %
Range quality 99.9 %
Copy CRC F80B5103
Copy OK

No errors occurred


AccurateRip summary

Track 1 not present in database
Track 2 not present in database
Track 3 not present in database
Track 4 not present in database
Track 5 not present in database
Track 6 not present in database
Track 7 not present in database
Track 8 not present in database

None of the tracks are present in the AccurateRip database

End of status report

Link :
http://www.megaupload.com/?d=E24JJZDL


CHEERS FOLKS
Poor

p.s. Comments are welcome !

ADVERTISING » Very Fast Download! « ADVERTISING


Posted By: whackatack Date: 01 May 2009 15:40:21
Unbelievable work, lossless too! What a superb post! Eternal thanks.
Posted By: Woodiano Date: 01 May 2009 15:54:45
Amazing post! Thanks a million!
Posted By: Anthony Date: 01 May 2009 15:57:44
WOWWWWWWWWWWWWWWWWWWWWWWWWWWWWWWWWWWWWWWWWWWWW!
Posted By: timewas Date: 01 May 2009 16:21:33
Well done Mate :o) (ZaXXoN)
Posted By: verb Date: 01 May 2009 16:26:34
What a Treasure, Poor_, thank you!
Posted By: fuckeer Date: 01 May 2009 17:31:59
It's heroin for freaks!
Posted By: maxxx Date: 01 May 2009 20:08:50
Great work dude, but conspicuously missing one of their best [live] albums "25th Birthday Party" from 1995. Do you have that one?
Posted By: facpor Date: 01 May 2009 21:06:41
ty very much
Posted By: Poor_ Date: 01 May 2009 21:21:27
maxxx sent you PM.
Cheers
Poor
Posted By: ed_macd Date: 01 May 2009 22:08:17
Great post, it would be great to get the complete disco
Posted By: d'Avignon Date: 02 May 2009 01:54:11
Coincidence: it's only a couple of months I discovered this group, which very much renders the spirit of the truly freakish sixties. I happen to have a video of them at the moment, but that's mainly Daevid Allen reciting his poems. And going to the toilet and all that.

Three large concert clips of the group on it, though. Especially the last one from a later date is totally weird, two band members marrying on stage (and actually consumating it at the spot, but that wasn't filmed).
If people are be interested, I can rip it
Posted By: fayfish Date: 02 May 2009 02:13:31
great post ... RS please..
Posted By: pdiddy Date: 02 May 2009 02:20:30
truly amazing, ive been out for some gong for ages now. ill add these to my gentle giant collection avax is
totally affecting my musical direction since i discovered it during christmas. Poor you enrich us all.

=P
Posted By: Poor_ Date: 02 May 2009 06:41:10
ed_macd : "Great post, it would be great to get the complete disco "
Agree. Would be fantastic to have complete Gong on Avax .
So everybody can help with one-two album.

d'Avignon : People are interested for sure.

fayfish : "... RS please.."
I'm finished with RS forever. But if somebody want to add mirrors - feel free !

Share Gong Culture !

Greetings
Poor
Posted By: matez2k Date: 02 May 2009 07:04:31
Wow! wonderful~ great post.
Posted By: TinyAnonymous Date: 02 May 2009 08:19:06
A huge thank for that great post !

Fly-ing Tea-pot... Fly-ing Tea-pot... Fly-ing Tea-pot... Fly-ing Tea-pot... Fly-ing Tea-pot...


"Tu veux un camembert ?"
Posted By: Sblast Date: 02 May 2009 09:12:00
haha I love psych rock and gong.
Thx very much
Posted By: JanusTC Date: 02 May 2009 09:14:51
I LOVE this post! Many many many thanks for that wonderful present!
Posted By: Nick Cave Date: 02 May 2009 11:08:04
Poor_ Muchisimas Gracias por este trabajo que has realizado, es Impresionante ! Gracias una vez mas y un Abrazo desde Argentina!!
Posted By: moischele Date: 02 May 2009 13:36:37
thx a lot! great post!
one question before i start DL: are these separated tracks?
Posted By: midiinputproblem Date: 02 May 2009 14:02:29
Putain d'upload !!!!!
Been ages since I've listened to some Gong. Thank you from the bottom of my heart!
Posted By: d'Avignon Date: 02 May 2009 14:04:49
Here an impossible-to-find album, I picked it up at torrents.ru. Thanks to poster Antonio.
No lossless, @192, but the chance to get it is otherwise zilch

Mother Gong - Fairy Tales

http://rapidshare.com/files/224246104/gofamo.rar

Exquisite little album!
Posted By: martinli Date: 02 May 2009 14:19:07
Hey Poor_,

thank you very much for your great post. You made my day, week, month!!!!!


At d'Avignon: I'm very interested in those concert clips, and I'm shure many others are too!

Have all a peaceful weekend!

martinli
Posted By: sugarpop_123 Date: 02 May 2009 14:37:22
omg what an amazing post! any chance of putting up radio gnome invisble pt 1 - flying teapot?
Posted By: edypro Date: 02 May 2009 15:59:44
TKS!!!

Please new link for Bataclan... invalid link

TKS again!!!
Posted By: Poor_ Date: 02 May 2009 16:05:13
moischele Date: "..one question before i start DL: are these separated tracks? "
If I remember well all albums posted with separate tracks except:
HERE AND NOW - 1999 - Gospel of Free
GONG - Live in Sherwood Forest '75
(not my rips)
But cue is included in all albums.

d'Avignon : Thanks for Mother Gong - Fairy Tales - wasn't listen ever.

sugarpop_123: Didn't post great Flying Teapot because desperately searching for remastered version like part 2 & 3
- anybody?

Cheers Folks!
Poor
Posted By: matez2k Date: 02 May 2009 16:09:33
OHWOO MY GOD!!
All files deleted.
Posted By: DrDemento Date: 02 May 2009 16:11:47
!!!ALL LINKS ARE DEAD!!!
Posted By: Poor_ Date: 02 May 2009 16:20:59
I don't know what to say.... ALL LINKS ARE DELETED !
"The file has been deleted because it was violating our Terms of service."
It was hugh work, a lot of time.
Seems will come time when links will be send by PM only!

Poor
Posted By: jorgeluiz Date: 02 May 2009 16:21:57
links are dead! :-(
PLEASE, reupload in rapishare Poor_!!!
Posted By: Popopzeduck Date: 02 May 2009 17:05:18
Great post but dead links :'(((

Posted By: d'Avignon Date: 02 May 2009 17:07:52
Jesus, this is tragic...it's only been up for less than a day. I feel sorry for you, Poor. Such hard work!

----

Alright, let's see what's left of the avax team spirit and make a concerted effort to get this back online again. I only got as far as two downloads, I was too busy preparing my own post.

Here's a re-up of -

Daevid Allen & Euterpe - Good Morning

http://rapidshare.com/files/228349535/dagomo_part1.rar
http://rapidshare.com/files/228352751/dagomo_part2.rar
http://rapidshare.com/files/228355752/dagomo_part3.rar

I'll do Live in Sherwood Forest too.

Who's next?
Posted By: matez2k Date: 02 May 2009 17:57:51
11 Album completed.

PLANET GONG - Floating Anarchy
DAEVID ALLEN - Good Morning!
DAEVID ALLEN - Now Is The Happiest Time Of Your Life
DAEVID ALLEN & MOTHER GONG - The Owl And The Tree
GONG - Angel's Egg - Radio Gnome Invisible - Pt. 2
GONG - Camembert Electrique
GONG - Continental Circus
GONG - Expresso (Gazeuse!) - Expresso II
GONG - Live etc.
GONG - Live In Paris - Bataclan 1973
GONG - Live in Sherwood Forest '75

RS Reup Link:

http://rapidshare.com/files/228230779/DAEVID_ALLEN__amp__MOTHER_GONG_-_1989__2004__The_Owl_And_The_Tree.part1.rar
http://rapidshare.com/files/228236042/DAEVID_ALLEN__amp__MOTHER_GONG_-_1989__2004__The_Owl_And_The_Tree.part2.rar
http://rapidshare.com/files/228201018/DAEVID_ALLEN_-_Good_Morning_.part1.rar
http://rapidshare.com/files/228195475/DAEVID_ALLEN_-_Good_Morning_.part2.rar
http://rapidshare.com/files/228219743/DAEVID_ALLEN_-_Now_Is_The_Happiest_Time_Of_Your_Life__1977-2007_24-bit_Remastered_Expanded_Edition_.(part1.rar)
http://rapidshare.com/files/228222306/DAEVID_ALLEN_-_Now_Is_The_Happiest_Time_Of_Your_Life__1977-2007_24-bit_Remastered_Expanded_Edition_.(part2.rar)
http://rapidshare.com/files/228242621/GONG_-_Angel__039_s_Egg.part1.rar
http://rapidshare.com/files/228213871/GONG_-_Angel__039_s_Egg.part2.rar
http://rapidshare.com/files/228270965/GONG_-_Camembert_Electrique.part1.rar
http://rapidshare.com/files/228275470/GONG_-_Camembert_Electrique.part2.rar
http://rapidshare.com/files/228418532/GONG_-_Continental_Circus.part1.rar
http://rapidshare.com/files/228435252/GONG_-_Continental_Circus.part2.rar
http://rapidshare.com/files/228400683/GONG_-_Continental_Circus.part3.rar
http://rapidshare.com/files/228333447/GONG_-_Expresso_-_Expresso_II.part1.rar
http://rapidshare.com/files/228355807/GONG_-_Expresso_-_Expresso_II.part2.rar
http://rapidshare.com/files/228359280/GONG_-_Expresso_-_Expresso_II.part3.rar
http://rapidshare.com/files/228282131/GONG_-_Floating_Anarchy_1977_.part1.rar
http://rapidshare.com/files/228285349/GONG_-_Floating_Anarchy_1977_.part2.rar
http://rapidshare.com/files/228380521/GONG_-_Live_etc.part1.rar
http://rapidshare.com/files/228399877/GONG_-_Live_etc.part2.rar
http://rapidshare.com/files/228313196/GONG_-_Live_etc.part3.rar
http://rapidshare.com/files/228292127/GONG_-_Live_in_Sherwood_Forest___039_75.part1.rar
http://rapidshare.com/files/228298241/GONG_-_Live_in_Sherwood_Forest___039_75.part2.rar
http://rapidshare.com/files/228305471/GONG_-_Live_in_Sherwood_Forest___039_75.part3.rar
http://rapidshare.com/files/228264982/GONG_-_Live_in_Sherwood_Forest___039_75.part4.rar

http://rapidshare.com/files/228452723/GONG_-_Live_In_Paris_-_Bataclan_1973.part1.rar
http://rapidshare.com/files/228465501/GONG_-_Live_In_Paris_-_Bataclan_1973.part2.rar
http://rapidshare.com/files/228437629/GONG_-_Live_In_Paris_-_Bataclan_1973.part3.rar
Posted By: gotchabrada Date: 02 May 2009 18:00:18
Dashiell Hedayat is on the way up also from my side. :)

Ready:

http://rapidshare.com/files/228363048/Dashiell_Hedayat_-_Obsolete_Part_1.zip.html
http://rapidshare.com/files/228367148/Dashiell_Hedayat_-_Obsolete_Part_2.zip.html

pass: ryJ4yvpB1jC1
Posted By: Popopzeduck Date: 02 May 2009 18:09:25
I particulary need the two Here & Now albums, The Continental Circus Soundtrack, Eat Me Baby I'm A Jelly Bean, and The Owl And The Tree ;-)
Posted By: d'Avignon Date: 02 May 2009 19:54:55
ai, matez2k - great you did so many - but I'm afraid here's Live in Sherwood Forest already, like I said. Well, never mind, the more ups the better!

Live in Sherwood Forest.

http://rapidshare.com/files/228376558/goshefs_part1.rar
http://rapidshare.com/files/228379559/goshefs_part2.rar
http://rapidshare.com/files/228382637/goshefs_part3.rar
http://rapidshare.com/files/228385741/goshefs_part4.rar
http://rapidshare.com/files/228388873/goshefs_part5.rar
http://rapidshare.com/files/228392069/goshefs_part6.rar
http://rapidshare.com/files/228393096/goshefs_part7.rar
Posted By: ed_macd Date: 02 May 2009 22:19:53
Daevid Allen: OutTakes from "N'Existe Pas" 1978

FLAC


01. Banana Reggae
02. No Other Than The Mother Is My Song
03. I Am The Fool
04. 5 & 20 Spacemen (?)


Musicians -


Daevid Allen: Guitar, Vocals
George Bishop: Saxophone & Clarinet
Chris Cutler: Percussion
Pepsi Milan: Acoustic Guitar
Angel Aduana: Banjo
Ronald Walten: Pipes on Plastic Disc
Brain Damage, Ronald & Rodney Dust: Drums

http://www.megaupload.com/?d=5OUY43DT

or

http://www.badongo.com/file/12829781
Posted By: matez2k Date: 03 May 2009 03:25:41
additional link,

http://rapidshare.com/files/228452723/GONG_-_Live_In_Paris_-_Bataclan_1973.part1.rar
http://rapidshare.com/files/228465501/GONG_-_Live_In_Paris_-_Bataclan_1973.part2.rar
http://rapidshare.com/files/228437629/GONG_-_Live_In_Paris_-_Bataclan_1973.part3.rar
Posted By: Poor_ Date: 03 May 2009 08:14:38
God Blessed "Gong Community" !

Share Gong Culture !

Cheers Folks !
Poor
Posted By: mrlimbo Date: 03 May 2009 09:28:35
This is great work , and many thanks , but the HERE & NOW albums are harder to find than the GONG ones , any chance of them being re-posted ?
Posted By: ed_macd Date: 03 May 2009 10:56:28
GONG - "Gong Live At Mallacoff"(June 7th 1972 n January 27th 1973 at the Théatre 71)

1) PHP's (1:26)
2) This Microphone (2:38)
3) Zero The Hero (12:44)
4) I Am Your Animal / Bamboolay (9:31)
5) You Can't kill Me (5:55)
6) Dreaming it (4:49)
7) Tropical Fish (14:11)

Part 1: http://www.megaupload.com/?d=UOTX61YU

Part 2: http://www.megaupload.com/?d=S5JEZKM5


or use...

Part 1: http://www.badongo.com/file/11355039

Part 2: http://www.badongo.com/file/11354984



or

Part 2:

Posted By: edypro Date: 03 May 2009 15:43:01
Tks for the re-post!

Live in Sherwood Forest needs a cue file...

TKS!!!
Posted By: GRoTeSK Date: 05 May 2009 10:10:56
Any Valid Mirror For OBSOLETE and MAGIK BROTHER ????????
Posted By: darmanek2 Date: 05 May 2009 16:38:14
Please re-seed
GONG with DASHIELL HEDAYAT - Obsolete !!!!!!!!!!!!!!!!
Posted By: gotchabrada Date: 06 May 2009 04:45:08
@GRoTeSK & @darmanek2

I have just uploaded

Dashiell Hedayat: Obsolete

to the following locations

part1: http://rapidshare.com/files/229674851/saztrtgjkgh1.zip.html
part2: http://rapidshare.com/files/229677842/saztrtgjkgh2.zip.html


with the pass "ryJ4yvpB1jC1" (no quotation marks) again, but I haven't got any Rapidshare Premium accounts, so it can be downloaded 10 times max. What if you shared it on torrent after downloading it?

Guys, any other solutions anywhere to share files without download limit? (Except torrent, of course.)
Posted By: JanusTC Date: 06 May 2009 08:56:47
Found "Flying Teapot" there: thealwaysbluesociety.blogspot.com/2007/12/gong-radio-gnome-invisible-1-flying.html
Posted By: Poor_ Date: 06 May 2009 13:04:07
A lot of Gong and related here :
http://nnm.ru/search?q=gong&in=tags&page=1
& here :
http://nnm.ru/blogs/eizo/gong/#cut
(must register)
Cheers
Poor
Posted By: darmanek2 Date: 06 May 2009 14:49:23
Thank YOU gotchabrada!!!!Maybe You have a Magick Brother,The Peel Sessions 1971-1974,Shapeshifter and a HERE & NOW CD's?

edypro cue file to Sherwood concert:

REM GENRE Progressive Rock
REM DATE 2005
REM DISCID 5D126B08
REM COMMENT ExactAudioCopy v0.99pb4
PERFORMER "Gong"
TITLE "Live in Sherwood Forest '75"
FILE "GONG - Live in Sherwood Forest '75.ape" WAVE
TRACK 01 AUDIO
TITLE "Master Builder"
INDEX 01 00:00:00
TRACK 02 AUDIO
TITLE "Chandra"
INDEX 01 06:07:42
TRACK 03 AUDIO
TITLE "Aftaglid"
INDEX 01 12:38:60
TRACK 04 AUDIO
TITLE "Cat In Clark's Shoes"
INDEX 01 29:15:29
TRACK 05 AUDIO
TITLE "Wingful Of Eyes"
INDEX 01 38:18:56
TRACK 06 AUDIO
TITLE "The Salmon Song"
INDEX 01 45:59:42
TRACK 07 AUDIO
TITLE "Isle Of Everywhere"
INDEX 01 57:09:31
TRACK 08 AUDIO
TITLE "Shamal"
INDEX 01 70:00:26
Posted By: YellowRoses Date: 08 May 2009 22:11:47
Thanks Poor_!
And thanks to all others too!
For the newer ones - I found lots more by searching for Gong here:
http://4megaupload.com/
and you can grab some blogspot links for even more Gong there...
Posted By: Fa Date: 11 May 2009 02:13:19
I'm going to see GONG in Brighton UK in November and...and...Steve Hillage, the king guitarist is going to be playing too.
What fun we shall have!
Plenty of Tea dn herbal tea beforehand should help get the journey started.
IO can't wait.
Thanks for some of these albums as I have upgraded some of the low bitrate ones I had already.
Nice!

Fa
Posted By: abeld Date: 19 May 2009 00:10:52
Dashiell Hedayat: Obsolete, please!!!
Posted By: plasticarman Date: 17 Sep 2009 04:15:49
thank you everyone! i would love some gong albums in lossless!
Posted By: tejoyu Date: 07 Nov 2009 01:43:05
Here the links :

Planet Gong - Live Floating Anarchy 1977.rar
http://megaupload.com/?d=96564AS0

Gong - 1974 Live At Sheffield.rar
http://megaupload.com/?d=1MG5L9BD 79.08 MB
http://rapidshare.com/files/134728185/GLAS7496.rar 82948 KB (password : MOODSWINGS)
Posted By: beurkblob Date: 01 May 2011 13:06:07
PFouuuh ! Amazing !
A very great post and many gooood links from the members !

I thought Gong was known only by a few old french freaky hippies... I was absolutely wrong.
Posted By: JellyBabies Date: 06 Sep 2011 20:54:00
excellent post man!
Posted By: el tiempo de la cultura Date: 09 Sep 2011 03:04:54
Reupload please!
Posted By: dorkt Date: 16 Jan 2012 00:54:19
Reupload please!

Many thanks!