Loading...

Zombi - Cosmos

Posted By : Axiat | Date : 21 Jul 2010 02:30:34 | Comments : 1 |
|



Zombi - Cosmos (2004)
EAC rip | FLAC(tracks) + CUE + LOG | No Scans | MP3 320 CBR | 314 MB / 112 MB
Electronic, Prog Rock | Label: Release Entertainment | Uploaded + Sharingmatix


Tracklist:

1. Orion (2:49)
2. Cetus (4:01)
3. Cassiopeia (2:56)
4. Serpens (9:38)
5. Gemini (11:05)
6. Andromeda (2:12)
7. Taurus (13:44)

log
Exact Audio Copy V0.99 prebeta 4 from 23. January 2008

EAC extraction logfile from 19. May 2008, 15:37

Zombi / Cosmos

Used drive : TSSTcorpCDDVDW SH-S203B Adapter: 3 ID: 0

Read mode : Secure
Utilize accurate stream : Yes
Defeat audio cache : Yes
Make use of C2 pointers : No

Read offset correction : 6
Overread into Lead-In and Lead-Out : No
Fill up missing offset samples with silence : Yes
Delete leading and trailing silent blocks : No
Null samples used in CRC calculations : Yes
Used interface : Installed external ASPI interface
Gap handling : Appended to previous track

Used output format : User Defined Encoder
Selected bitrate : 768 kBit/s
Quality : High
Add ID3 tag : No
Command line compressor : C:\Program Files\FLAC\flac.exe
Additional command line options : -8 -A tukey(0.25) -A gauss(0.1875) -b 4096 -V -T "artist=%a" -T "title=%t" -T "album=%g" -T "date=%y" -T "tracknumber=%n" -T "genre=%m" %s --sector-align


TOC of the extracted CD

Track | Start | Length | Start sector | End sector
---------------------------------------------------------
1 | 0:00.00 | 2:49.52 | 0 | 12726
2 | 2:49.52 | 4:02.04 | 12727 | 30880
3 | 6:51.56 | 2:57.00 | 30881 | 44155
4 | 9:48.56 | 9:38.46 | 44156 | 87551
5 | 19:27.27 | 11:05.68 | 87552 | 137494
6 | 30:33.20 | 2:12.67 | 137495 | 147461
7 | 32:46.12 | 13:44.10 | 147462 | 209271


Track 1

Filename D:\flac\Zombi - Cosmos (FLAC) [RR 6590-2] (2004)\01 - Zombi - Orion.wav

Pre-gap length 0:00:02.00

Peak level 100.0 %
Track quality 99.9 %
Test CRC 31715DC7
Copy CRC 31715DC7
Copy OK

Track 2

Filename D:\flac\Zombi - Cosmos (FLAC) [RR 6590-2] (2004)\02 - Zombi - Cetus.wav

Peak level 100.0 %
Track quality 99.9 %
Test CRC AE1AD644
Copy CRC AE1AD644
Copy OK

Track 3

Filename D:\flac\Zombi - Cosmos (FLAC) [RR 6590-2] (2004)\03 - Zombi - Cassiopeia.wav

Peak level 95.1 %
Track quality 99.9 %
Test CRC FC4FEED5
Copy CRC FC4FEED5
Copy OK

Track 4

Filename D:\flac\Zombi - Cosmos (FLAC) [RR 6590-2] (2004)\04 - Zombi - Serpens.wav

Peak level 100.0 %
Track quality 100.0 %
Test CRC FA4E02C5
Copy CRC FA4E02C5
Copy OK

Track 5

Filename D:\flac\Zombi - Cosmos (FLAC) [RR 6590-2] (2004)\05 - Zombi - Gemini.wav

Peak level 100.0 %
Track quality 100.0 %
Test CRC 9CD676C4
Copy CRC 9CD676C4
Copy OK

Track 6

Filename D:\flac\Zombi - Cosmos (FLAC) [RR 6590-2] (2004)\06 - Zombi - Andromeda.wav

Peak level 78.3 %
Track quality 100.0 %
Test CRC C0121FA1
Copy CRC C0121FA1
Copy OK

Track 7

Filename D:\flac\Zombi - Cosmos (FLAC) [RR 6590-2] (2004)\07 - Zombi - Taurus.wav

Peak level 100.0 %
Track quality 100.0 %
Test CRC 112031F5
Copy CRC 112031F5
Copy OK

No errors occurred

End of status report


Zombi is a Pennsylvania duo that plays electronic cosmic music that can be reminiscent from groups as far apart as Tangerine Dream to Djam Kater or Nebelnest. This duo comprising Steve Moore as a keyboardist/bassist, while Paterra is the percussionist

Their seven tracks (divided into two chapters) are all titled after stars, galaxies and zodiacal formations, which illustrate very well the music. While not exactly revolutionary or groundbreaking, Zombi avoids the usual traps of sounding like new age music by being very energetic at times drawing some inspiration on some of Nebelnest's more enthralling moments. These moments are contrasting with the quieter more reflective ones where Klaus Schulze or Edgar Froese's influences are obvious.



ADVERTISING » Free Fast Download! « ADVERTISING


Posted By: cyberpolo Date: 25 Aug 2011 04:37:44
Sorry to say but links are down. If a reup is possible, thanks so much in advance!