Loading...

VA – Time-Life Music – AM Gold 1972 (1991)

Posted By : EktorasClub | Date : 02 Jun 2011 05:47:37 | Comments : 6 |
|


AM Gold 1972

VA – Time-Life Music – AM Gold 1972
EAC Rip | Included: EAC Log + CUE + Flac + Covers | Size: 437 MB | RAR files
Release: 1991 | Label: Time Life, Warner Special Products | Number: AM1-07
Style: Funk, Soul, Rock | Stereo | FileServe.com, RapidShare.com

Album Notes
This series started out in 1990 as Super Hits, with each issue having a cartoonish photo/drawing as cover art. There were 20 volumes in the original Super Hits series. In 1995, the series was renamed AM Gold. The first four volumes were reissued using the new series title and a modified version of the cover art work from SUD-05, but that was soon replaced with a second AM Gold cover design that featured a gold record. The Super Hits series used the SUD- prefix, while the AM Gold series used the AM1- prefix. In the late 1990s, the AM1- prefix was replaced with the R834- prefix, but the volumes continued as before. Two AM Gold budget box sets were introduced in the late 1990s, with 12 tracks instead of the usual 18-24. These were meant for retail sales, unlike the normal subscription CDs.

"Lobo - I'd Love You To Want Me", "America - A Horse With No Name", "Nilsson - Without You", "Moody Blues - Nights In White Satin" and more... are the songs which included on the 3rd cd "1972" of "Time-Life Music – AM Gold" series, released in 1991 by Time Life & Warner Special Products label.


Artist: Various
Title: Time-Life Am Gold - 1972
==========================================
01 - Three Dog Night - Black And White
02 - Jim Croce - You Don't Mess Around With Jim
03 - Johnny Nash - I Can See Clearly Now
04 - Al Green - I'm Still In Love With You
05 - Gilbert O'sullivan - Alone Again (Naturally)
06 - 5Th Dimension, The - (Last Night) I Didn't Get To Sleep At All
07 - Gallery - Nice To Be With You / Gallery / Nice To Be With You
08 - Ricky Nelson And The Stone Canyon Band - Garden Party
09 - Seals And Crofts - Summer Breeze
10 - Lobo - I'd Love You To Want Me
11 - Climax - Precious And Few
12 - America - A Horse With No Name
13 - Looking Glass - Brandy (You're A Fine Girl)
14 - Main Ingredient, The - Everybody Plays The Fool
15 - Dr. Hook And The Medicine Show - Sylvia's Mother
16 - Chi-Lites, The - Oh Girl / Chi-Lites, The / Oh Girl
17 - Danny O'keefe - Good Time Charlie's Got The Blues
18 - Billy Paul - Me And Mrs. Jones
19 - Mac Davis - Baby Don't Get Hooked On Me
20 - Nilsson - Without You
21 - Moody Blues - Nights In White Satin
Total Time: 01:12:31

EAC Log
Exact Audio Copy V1.0 beta 1 from 15. November 2010

EAC extraction logfile from 20. January 2011, 23:59

Various / Time-Life Am Gold - 1972

Used drive : _NEC DVD_RW ND-4550A Adapter: 0 ID: 0

Read mode : Secure
Utilize accurate stream : Yes
Defeat audio cache : Yes
Make use of C2 pointers : No

Read offset correction : 48
Overread into Lead-In and Lead-Out : No
Fill up missing offset samples with silence : Yes
Delete leading and trailing silent blocks : No
Null samples used in CRC calculations : No
Used interface : Native Win32 interface for Win NT & 2000

Used output format : Internal WAV Routines
Sample format : 44.100 Hz; 16 Bit; Stereo


TOC of the extracted CD

Track | Start | Length | Start sector | End sector
---------------------------------------------------------
1 | 0:00.00 | 3:47.10 | 0 | 17034
2 | 3:47.10 | 2:58.73 | 17035 | 30457
3 | 6:46.08 | 2:44.45 | 30458 | 42802
4 | 9:30.53 | 3:12.50 | 42803 | 57252
5 | 12:43.28 | 3:39.40 | 57253 | 73717
6 | 16:22.68 | 3:11.02 | 73718 | 88044
7 | 19:33.70 | 2:39.23 | 88045 | 99992
8 | 22:13.18 | 3:48.10 | 99993 | 117102
9 | 26:01.28 | 3:25.60 | 117103 | 132537
10 | 29:27.13 | 3:59.07 | 132538 | 150469
11 | 33:26.20 | 2:47.58 | 150470 | 163052
12 | 36:14.03 | 4:09.27 | 163053 | 181754
13 | 40:23.30 | 2:57.60 | 181755 | 195089
14 | 43:21.15 | 3:19.50 | 195090 | 210064
15 | 46:40.65 | 3:40.58 | 210065 | 226622
16 | 50:21.48 | 3:30.50 | 226623 | 242422
17 | 53:52.23 | 3:01.57 | 242423 | 256054
18 | 56:54.05 | 4:48.15 | 256055 | 277669
19 | 61:42.20 | 3:03.23 | 277670 | 291417
20 | 64:45.43 | 3:20.50 | 291418 | 306467
21 | 68:06.18 | 4:24.25 | 306468 | 326292


Range status and errors

Selected range

Filename E:\0003 Upload\VA - Time-Life Music - AM Gold 1970-79\1972\Various - Time-Life Am Gold - 1972.wav

Peak level 99.9 %
Extraction speed 0.3 X
Range quality 100.0 %
Copy CRC 8064A811
Copy OK

No errors occurred


AccurateRip summary

Track 1 not present in database
Track 2 not present in database
Track 3 not present in database
Track 4 not present in database
Track 5 not present in database
Track 6 not present in database
Track 7 not present in database
Track 8 not present in database
Track 9 not present in database
Track 10 not present in database
Track 11 not present in database
Track 12 not present in database
Track 13 not present in database
Track 14 not present in database
Track 15 not present in database
Track 16 not present in database
Track 17 not present in database
Track 18 not present in database
Track 19 not present in database
Track 20 not present in database
Track 21 not present in database

None of the tracks are present in the AccurateRip database

End of status report

-------------------------------------------------
My Blog Here you can find more fine audio stuff.
More Lossless you can find here: A01 & A02.

TradeMark


AccurateRip

Files compressed with WinRAR

Download from Direct Links:
-------------------------------------------------

Link


Link

Password: EktorasClub
Enjoy!!!

ADVERTISING » Very Fast Download! « ADVERTISING


Posted By: Laserman59 Date: 02 Jun 2011 07:19:12
Thank you EC for sharing these great compilations. :-)
Posted By: nasa Date: 02 Jun 2011 07:55:58
Thank you so much !!!
Posted By: pr1mus Date: 03 Jun 2011 08:46:50
Hi! very good quality thank you!!
Posted By: tbmusic Date: 20 Jun 2011 22:50:02
thank you
Posted By: nrwsps Date: 26 Sep 2012 10:31:04
Many Thanks.
Posted By: SwissCheese Date: 18 Nov 2012 13:52:00
So many classic hit songs here. Thank you for this wonderful series of posts!