Loading...

The Rolling Stones - Their Satanic Majesties Request (1967) [London 820 129-2, 1986]

Posted By : gonzalo76 | Date : 20 Mar 2010 19:24:17 | Comments : 5 |
|



The Rolling Stones - Their Satanic Majesties Request
EAC Rip | WV, IMG+CUE, LOG | 1CD | 310 MB | Full Scans 300 dpi | RAR 3% Rec | RS.com
Rock & Roll | Label: London | Catalog Number: 820 129-2 | Year: 1986



Album Review:

Their Satanic Majesties Request is the sixth studio album by The Rolling Stones and was released on 8 December 1967 by Decca Records in the United Kingdom and the following day in the United States by London Records. Its title is a play on the "Her Britannic Majesty requests and requires..." text that appears inside a British passport.

Begun just after Between the Buttons had been released, the recording of Their Satanic Majesties Request was long and sporadic, broken up by court appearances and jail terms. Starting with this release, non-compilation albums from the band would be released in uniform editions across international markets.

Released in December 1967, Their Satanic Majesties Request reached #3 in the UK and #2 in the US (easily going gold), but its commercial performance declined rapidly. It was soon viewed as a pretentious, poorly conceived attempt to outdo The Beatles and Sgt. Pepper's Lonely Hearts Club Band (released June 1967), often explained by drug trials and excesses in contemporary musical fashion, although McCartney and Lennon did provide backing vocals on "Sing This All Together." At this point, the album was the first (and only) album produced by the Stones themselves. The production, in particular, came in for harsh criticism from Jon Landau in the fifth edition of Rolling Stone Magazine, and the Stones turned to Jimmy Miller to produce their subsequent albums. The response of the audience and the growing rejection of the flower power scene by Jagger and Richards would mean a turning point for the Stones: in 1968 the Stones would return to the hard driving blues that earned them fame early in their career.


Album Details:

Artist: The Rolling Stones
Album: Their Satanic Majesties Request
Label: London Records
Catalogue #: 820 129-2
Format: CD
Type: Album
Country: France
CD Release Date: 1986
Original Release Date: 1967
Number of Discs: 1
Language: English
Time: 44:13
Rating: 4 stars (allmusic.com)
Genre: Pop/Rock
Styles: British Invasion, Rock & Roll, British Psychedelia, Psychedelic, British Blues, British Invasion, Blues-Rock


Track listing:

All songs by Mick Jagger and Keith Richards, except where noted.

01. Sing This All Together – 3:48
02. Citadel – 2:51
03. In Another Land (Bill Wyman) – 3:13
04. 2000 Man – 3:08
05. Sing This All Together (See What Happens) – 8:34
06. She's a Rainbow – 4:35
07. The Lantern – 4:23
08. Gomper – 5:09
09. 2000 Light Years from Home – 4:45
10. On with the Show – 3:46


Personnel:

The Rolling Stones

* Mick Jagger- lead vocals, backing vocals, percussion
* Brian Jones - percussion, flute, mellotron, organ, electric dulcimer, saxophone, recorder, guitar
* Keith Richards - guitars, bass guitar, mellotron, backing vocals
* Charlie Watts - drums, percussion, tablas
* Bill Wyman — bass, percussion, backing vocals, lead vocals on "In Another Land"

Additional personnel

* Nicky Hopkins - piano, harpsichord, organ, mellotron
* John Paul Jones — string arrangement on "She's a Rainbow"
* Eddie Kramer — percussion
* Ronnie Lane — backing vocals on "In Another Land"
* Steve Marriott — backing vocals and acoustic guitar on "In Another Land"
* John Lennon — vocals on "Sing This All Together"
* Paul McCartney — vocals on "Sing This All Together"
* Anita Pallenberg — vocals
* Ian Stewart — organ
* Uncredited musicians — strings and brass


EAC Log
Exact Audio Copy V0.99 prebeta 5 from 4. May 2009

EAC extraction logfile from 19. March 2010, 1:43

The Rolling Stones / Their Satanic Majesties Request

Used drive : ATAPI DVD A DH20A4P Adapter: 1 ID: 0

Read mode : Secure
Utilize accurate stream : Yes
Defeat audio cache : Yes
Make use of C2 pointers : No

Read offset correction : 6
Overread into Lead-In and Lead-Out : No
Fill up missing offset samples with silence : Yes
Delete leading and trailing silent blocks : No
Null samples used in CRC calculations : Yes
Used interface : Native Win32 interface for Win NT & 2000

Used output format : User Defined Encoder
Selected bitrate : 1024 kBit/s
Quality : High
Add ID3 tag : No
Command line compressor : C:\Archivos de programa\WavPack\wavpack.exe
Additional command line options : -w "Artist=%a" -w "Title=%t" -w "Album=%g" -w "Year=%y" -w "Track=%n" -w "Genre=%m" -h %s %d


TOC of the extracted CD

Track | Start | Length | Start sector | End sector
---------------------------------------------------------
1 | 0:00.32 | 3:47.58 | 32 | 17114
2 | 3:48.15 | 2:51.12 | 17115 | 29951
3 | 6:39.27 | 3:13.10 | 29952 | 44436
4 | 9:52.37 | 3:07.68 | 44437 | 58529
5 | 13:00.30 | 8:34.10 | 58530 | 97089
6 | 21:34.40 | 4:35.37 | 97090 | 117751
7 | 26:10.02 | 4:23.15 | 117752 | 137491
8 | 30:33.17 | 5:09.08 | 137492 | 160674
9 | 35:42.25 | 4:45.02 | 160675 | 182051
10 | 40:27.27 | 3:45.43 | 182052 | 198969


Range status and errors

Selected range

Filename E:\AvaxHome\The Rolling Stones - Their Satanic Majesties Request.wav

Peak level 98.7 %
Range quality 100.0 %
Test CRC 968360C9
Copy CRC 968360C9
Copy OK

No errors occurred


AccurateRip summary

Track 1 cannot be verified as accurate (confidence 38) [6DA39FDA], AccurateRip returned [DE25C208]
Track 2 cannot be verified as accurate (confidence 38) [5698A458], AccurateRip returned [6036A72C]
Track 3 cannot be verified as accurate (confidence 36) [0F29739D], AccurateRip returned [9095155B]
Track 4 cannot be verified as accurate (confidence 38) [A4468AA2], AccurateRip returned [316A6B76]
Track 5 cannot be verified as accurate (confidence 37) [8A9ED3AC], AccurateRip returned [F0C4E8A3]
Track 6 cannot be verified as accurate (confidence 41) [67412522], AccurateRip returned [967C77AB]
Track 7 cannot be verified as accurate (confidence 38) [E2C67264], AccurateRip returned [7B91E40B]
Track 8 cannot be verified as accurate (confidence 39) [A04B5782], AccurateRip returned [73E5EFAB]
Track 9 cannot be verified as accurate (confidence 39) [5BA8FD01], AccurateRip returned [763B9E74]
Track 10 cannot be verified as accurate (confidence 37) [D61D514D], AccurateRip returned [57E2C437]

No tracks could be verified as accurate
You may have a different pressing from the one(s) in the database

End of status report


Accurip Log
[Verification date: 20/03/2010 16:12:31]
[Disc ID: 000fee81-00828fe9-7d0a5c0a]
Pregap length 00:00:32.
Track [ CRC ] Status
01 [6da39fda] (00/38) No matches
02 [5698a458] (00/38) No matches
03 [0f29739d] (00/36) No matches
04 [a4468aa2] (00/38) No matches
05 [8a9ed3ac] (00/37) No matches
06 [67412522] (00/41) No matches
07 [e2c67264] (00/38) No matches
08 [a04b5782] (00/39) No matches
09 [5ba8fd01] (00/39) No matches
10 [d61d514d] (00/37) No matches
Offsetted by 1191:
01 [de25c208] (38/38) Accurately ripped
02 [6036a72c] (38/38) Accurately ripped
03 [9095155b] (36/36) Accurately ripped
04 [316a6b76] (38/38) Accurately ripped
05 [f0c4e8a3] (37/37) Accurately ripped
06 [967c77ab] (41/41) Accurately ripped
07 [7b91e40b] (38/38) Accurately ripped
08 [73e5efab] (39/39) Accurately ripped
09 [763b9e74] (39/39) Accurately ripped
10 [57e2c437] (37/37) Accurately ripped

Track [ CRC32 ] [W/O NULL] [ LOG ]
-- [968360C9] [F4FC3AAF] CRC32
01 [45D5E242] [96772693]
02 [3D9CB47B] [AACC8B0E]
03 [84926FDD] [8AA79551]
04 [A14A8BA5] [54503FB8]
05 [8B38D4C0] [462010AB]
06 [11D10161] [BBE4CD44]
07 [CA1C7CBC] [95711127]
08 [E65C784D] [101436FA]
09 [B9564A81] [92743C06]
10 [1FB92C31] [293DFF14]



Lineage:

SilverCD -> EAC -> WV -> AvaxHome


Extra info:

- Cuesheet files included (WAV & wv).
- EAC extraction LOG file included.
- Codec used for lossless compression: WavPack 4.60.1
- Samplerate: 44100 Hz Stereo / Bitrate: 16 bits.
- Full artwork, 300 dpi, jpg format in highest quality.
- No tracks could be verified as accurate, I have a french pressing which is not very common like the german pressings.
- To decode WV to WAV, execute "Restore WAV File.bat".



The Rolling Stones - Their Satanic Majesties Request

RapidShare

Part 1 | Part 2 | Part 3 | Part 4

HotFile

Part 1 | Part 2 | Part 3 | Part 4

-----
pass: www.AvaxHome.ru_by_gonzalo76


Please, no mirrors !
To keep this post longer alive, please don't post the links and or passes in your comments.
Other users will be thankful for that!!!
In case you encounter dead links, please send me a private message.


Thank you very much.
Gonzalo

ADVERTISING » Very Fast Download! « ADVERTISING


Posted By: SteveJobs Date: 20 Mar 2010 20:17:07
Although not liked by many Stones fans, I do enjoy this album and am happy to add another version of it to my collection.
Thank you very much for posting this London version Gonzalo!
Posted By: Laserman59 Date: 20 Mar 2010 20:17:59
Thank you Gonzalo for your awesome sharing. :-)
Posted By: alfeizar Date: 21 Mar 2010 02:05:25
Thanks a lot for this one too gonzalo
Posted By: emmons Date: 22 Nov 2010 16:42:37
Just found you awesome blog, can't thank you enough for the great things you post.

I was looking at another Stones post and saw your comment "Fortunatelly I already have all these UMG 2009 Remaster Series. They are available on my blog in only 1 post with RapidShare and HotFile hosts." Beyond the fact you are sharing great music, thanks for your host choices.
Posted By: libra_winmx Date: 19 Dec 2010 16:55:30
Dear gonzalo76, hi,

Thanks a lot.
Merry Christmas!!!!!
Gracias,

librawinmx, from Brazil, Rio de Janeiro