Loading...

Willie May - Moon Chillun (2013)

Posted By : popsakov | Date : 31 Oct 2013 09:32:39 | Comments : 1 |
|



Willie May - Moon Chillun (2013)
EAC Rip | FLAC (Img) + Cue + Log ~ 306 Mb | MP3 CBR320 ~ 115 Mb
Scans Included (JPG, 600 dpi) | RAR 5% Recovery
Blues, Country, Rock, Roots | Booman Music | BMCD 4023

A mix of roots, rock, reggae, Cajun, country, and blues blended into a spicy and soulful stew.

Willie May has performed in basements, barns, garages, street corners, speak-easies, house trailers, preschool, high school, colleges, radio, television, bars, concert halls, outdoor festival arenas, and inside Attica prison.

Willie has taken his original blend of music to the blues clubs from The LaFayette Tap Room in Buffalo to Antones in Austin, TX, The Black Swan in Toronto, The Penny Arcade in Rochester, The Dinosaur BBQ in Syracuse, The Slippery Noodle in Indianapolis, Fat Fish Blue in Cleveland, Bflo Blues in Pittsburgh, and to countless other venues on thousands, yes thousands, of occasions.

Willie May has performed back to back on stage with Alvin Lee, Steve Marriott, John Kay and Steppenwolf, Bachman Turner Overdrive, Johnny Winter, Edgar Winter, Otis Clay, The Climax Blues Band, Zorra Young, Jerry Portnoy, The Legendary Blues Band, Buddy Guy, Lonnie Brooks, Johnny Clyde Copeland, Sue Foley, L.A. Jones, Chris Duarte, Clarence Gatemouth Brown, Stan Szelest, Chris Beard, Rock Bottom, James Cotton, Big Jack Johnson, Dangerous Dan Toler, Derek Trucks, Freddie Salem and many more. The Willie May Band is a 5 time Buffalo Area Music Award winner voted Western New York Blues Beat Magazine's Band of the Year.
~ williemaymusic.com


Track List:

01. Riverside Blues [03:44]
02. Geraldine [03:09]
03. Back to Glory [03:33]
04. Blues Parade [04:08]
05. Dont Know Where [04:01]
06. Jason Twisted My Arm Blues [03:16]
07. Sometimes [03:48]
08. Thirty Days [03:44]
09. On Vacation [04:52]
10. Everything is Alright [03:23]

EAC Log
Exact Audio Copy V1.0 beta 3 from 29. August 2011

Отчёт EAC об извлечении, выполненном 5. октября 2013, 9:30

Willie May / Moon Chillun

Дисковод: PLEXTOR DVDR PX-880SA Adapter: 1 ID: 0

Режим чтения : Достоверность
Использование точного потока : Да
Отключение кэша аудио : Да
Использование указателей C2 : Нет

Коррекция смещения при чтении : 6
Способность читать области Lead-in и Lead-out : Нет
Заполнение пропущенных сэмплов тишиной : Да
Удаление блоков с тишиной в начале и конце : Нет
При вычислениях CRC использовались нулевые сэмплы : Да
Интерфейс : Установленный внешний ASPI-интерфейс

Выходной формат : Пользовательский кодировщик
Выбранный битрейт : 1024 kBit/s
Качество : Высокий
Добавление ID3-тега : Нет
Утилита сжатия : C:\Program Files\Exact Audio Copy\FLAC\FLAC.EXE
Дополнительные параметры : -10 -V -T "ARTIST=%artist%" -T "TITLE=%title%" -T "ALBUM=%albumtitle%" -T "DATE=%year%" -T "TRACKNUMBER=%tracknr%" -T "GENRE=%genre%" -T "COMMENT=%comment%" -T "BAND=%albuminterpret%" -T "ALBUMARTIST=%albuminterpret%" -T "COMPOSER=%composer%" %haslyrics%--tag-from-file=LYRICS="%lyricsfile%"%haslyrics% -T "DISCNUMBER=%cdnumber%" -T "TOTALDISCS=%totalcds%" -T "TOTALTRACKS=%numtracks%" %hascover%--picture="%coverfile%"%hascover% %source% -o %dest%


TOC извлечённого CD

Трек | Старт | Длительность | Начальный сектор | Конечный сектор
---------------------------------------------------------------------
1 | 0:00.00 | 3:46.36 | 0 | 16985
2 | 3:46.36 | 3:11.68 | 16986 | 31378
3 | 6:58.29 | 3:35.64 | 31379 | 47567
4 | 10:34.18 | 4:10.05 | 47568 | 66322
5 | 14:44.23 | 4:03.29 | 66323 | 84576
6 | 18:47.52 | 3:18.36 | 84577 | 99462
7 | 22:06.13 | 3:50.42 | 99463 | 116754
8 | 25:56.55 | 3:46.44 | 116755 | 133748
9 | 29:43.24 | 4:54.14 | 133749 | 155812
10 | 34:37.38 | 3:23.42 | 155813 | 171079


Характеристики диапазона извлечения и сообщения об ошибках

Выбранный диапазон

Имя файла D:\BitComet\Willie May(flac)\2013 - Moon Chillun\Willie May - Moon Chillun.wav

Пиковый уровень 100.0 %
Скорость извлечения 7.5 X
Качество диапазона 100.0 %
CRC теста F3EBAD76
CRC копии F3EBAD76
Копирование... OK

Ошибок не произошло


AccurateRip: сводка

Трек 1 отсутствует в базе данных
Трек 2 отсутствует в базе данных
Трек 3 отсутствует в базе данных
Трек 4 отсутствует в базе данных
Трек 5 отсутствует в базе данных
Трек 6 отсутствует в базе данных
Трек 7 отсутствует в базе данных
Трек 8 отсутствует в базе данных
Трек 9 отсутствует в базе данных
Трек 10 отсутствует в базе данных

Ни одного трека нет в базе AccurateRip

Конец отчёта

==== Контрольная сумма отчёта 63BCF374E298CBFA33A226D5DF862CEEE3141D9EFCE74B06F396B63005F460E1 ====

DR Log
foobar2000 1.2.6 / Dynamic Range Meter 1.1.1
log date: 2013-10-30 12:28:04

--------------------------------------------------------------------------------
Analyzed: Willie May / Moon Chillun
--------------------------------------------------------------------------------

DR Peak RMS Duration Track
--------------------------------------------------------------------------------
DR8 0.00 dB -9.49 dB 3:46 01-Riverside Blues
DR7 0.00 dB -8.36 dB 3:12 02-Geraldine
DR7 0.00 dB -9.18 dB 3:36 03-Back to Glory
DR8 0.00 dB -8.92 dB 4:10 04-Blues Parade
DR9 0.00 dB -10.55 dB 4:03 05-Dont Know Where
DR7 0.00 dB -9.06 dB 3:18 06-Jason Twisted My Arm Blues
DR9 0.00 dB -10.24 dB 3:51 07-Sometimes
DR7 0.00 dB -8.09 dB 3:47 08-Thirty Days
DR6 0.00 dB -7.52 dB 4:54 09-On Vacation
DR10 0.00 dB -11.77 dB 3:24 10-Everything is Alright
--------------------------------------------------------------------------------

Number of tracks: 10
Official DR value: DR8

Samplerate: 44100 Hz
Channels: 2
Bits per sample: 16
Bitrate: 978 kbps
Codec: FLAC
================================================================================


All thanks go to izia1956

Visit my blog!

No mirrors, please!

Download:

Uploaded: FLAC | mp3

pass: www.AvaxHome.ru
ADVERTISING » Free Fast Download! « ADVERTISING


Posted By: Lamer Paparakov Date: 31 Oct 2013 11:47:06
Sorry!
I download for this!