Loading...

The Cult - Singles Collection 1984-1990

Posted By : gonzalo76 | Date : 28 Nov 2009 04:14:00 | Comments : 22 |
|



The Cult - Singles Collection 1984-1990
EAC rip | FLAC, IMG+CUE, LOG | 2.30 GB | 10 CD | Complete Scans | RAR 3% Rec. | RapidShare + FileServe + HotFile
Hard Rock | Label: Beggars Banquet | Catalog Number: BBP CD 1-3 & 6-12 | Format: CD, EP | Country: UK | Released: 1991






Description:
Singles Collection: 1984-1990 (August 1991, only 10,000 copies produced) (also known as E.P. Collection 84 - 90, with only 500 copies produced). Many, many non-LP tracks on this very rare and out of print EP's. Contains 10 EP's Beggars Banquet released between 1989 (the first 3) & 1991 (the other 7). They are labeled "BBP 1 CD" up to "BBP 12 CD". (BBP 4 CD was a Bauhaus release; BBP 5 CD was a Gary Numan release). All releases contain hard to find B-sides, mixes, rarities & live-tracks that are taken mostly from out of print 7-inches, 12-inches & CD-maxis. Here you have the complete box with 10 EP's: Love Removal Machine/Lil' Devil, Rain/Revolution, Fire Woman/Edie (Ciao Baby)/Sun King, Spirit Walker/Go West, Sweet Soul Sister (Live 1987-1989), The Electric Mixes, The Manor Sessions, Resurrection Joe/She Sells Sanctuary and Wild Flower (Live 1986-1987).

Lineage:
Silver EP's -> EAC (Secure Mode / Offset Corrected) -> Test & Copy Image & Create CUE Sheet -> Uncompressed -> WAV (1411 Kbit/s / 44100 Hz / 16 Bits / 2 Channels) -> FLAC frontend -> FLAC (compression level 8) -> AvaxHome

Technical information:
- Codec used for lossless compression: libFLAC 1.2.1 20070917.
- Samplerate: 44100 Hz Stereo / Bitrate: 16 bits.
- Full Scans in 300 dpi, jpg format in highest quality.
- EAC extraction LOG file included.
- Accurip log included.
- Cuesheet files included (WAV & FLAC).
- MD5 checksums included.



The Cult - The Manor Sessions
EAC rip | FLAC, IMG+CUE, LOG | 175 MB | 1 CD | Complete Scans | RAR 3% Rec. | RapidShare + FileServe
Rock, Hard Rock, Goth Rock | Label: Beggars Banquet | Catalog#: BBP 1 CD | Format: CD, EP | Country: UK | Released: 1988


Tracklist:
1. Love Removal Machine (Remix by Bill Price) 5:18
2. Wild Flower 4:11
3. Electric Ocean 4:12
4. Outlaw 5:07
5. Bad Fun 6:24

"Following the success of the "Love" album The Cult recorded 12 tracks at the Manor Studio in Oxfordshire during the summer of 1986 for their projected third album. On completion, the group felt the recordings did not reflect the hard edge of their music and wanted a cleaner sound. Consequently, they enlisted producer Rick Rubin and re-recorded the album in America which was released as "Electric". Four songs from the original sessions were issued as "b" sides on singles from "Electric" but until now the others have remained unheard. This CD release presents five more tracks from the Manor Sessions."


EAC Log
Exact Audio Copy V0.99 prebeta 5 from 4. May 2009

EAC extraction logfile from 24. November 2009, 18:46

The Cult / The Manor Sessions

Used drive : ATAPI DVD A DH20A4P Adapter: 1 ID: 0

Read mode : Secure
Utilize accurate stream : Yes
Defeat audio cache : Yes
Make use of C2 pointers : No

Read offset correction : 6
Overread into Lead-In and Lead-Out : No
Fill up missing offset samples with silence : Yes
Delete leading and trailing silent blocks : No
Null samples used in CRC calculations : Yes
Used interface : Native Win32 interface for Win NT & 2000

Used output format : Internal WAV Routines
Sample format : 44.100 Hz; 16 Bit; Stereo


TOC of the extracted CD

Track | Start | Length | Start sector | End sector
---------------------------------------------------------
1 | 0:00.33 | 5:17.57 | 33 | 23864
2 | 5:18.15 | 4:10.43 | 23865 | 42657
3 | 9:28.58 | 4:11.47 | 42658 | 61529
4 | 13:40.30 | 5:07.13 | 61530 | 84567
5 | 18:47.43 | 6:24.17 | 84568 | 113384


Range status and errors

Selected range

Filename E:\FLAC\The Cult - The Manor Sessions.wav

Peak level 91.2 %
Range quality 100.0 %
Test CRC 414C5A96
Copy CRC 414C5A96
Copy OK

No errors occurred


AccurateRip summary

Track 1 cannot be verified as accurate (confidence 15) [433EAA10], AccurateRip returned [E8B2A066]
Track 2 cannot be verified as accurate (confidence 15) [6CF5F97A], AccurateRip returned [5BD26789]
Track 3 cannot be verified as accurate (confidence 15) [05ADDC61], AccurateRip returned [5E718DD9]
Track 4 cannot be verified as accurate (confidence 16) [C1E1608D], AccurateRip returned [5B8BA350]
Track 5 cannot be verified as accurate (confidence 16) [C27A29F9], AccurateRip returned [B08E506C]

No tracks could be verified as accurate
You may have a different pressing from the one(s) in the database

End of status report




The Cult - The Love Mixes
EAC rip | FLAC, IMG+CUE, LOG | 235 MB | 1 CD | Complete Scans | RAR 3% Rec. | RapidShare + HotFile
Rock, Hard Rock, Goth Rock | Label: Beggars Banquet | Catalog#: BBP 2 CD | Format: CD, EP | Country: UK | Released: 1989


Tracklist:
1. She Sells Sanctuary (Long Version) 6:59
2. She Sells Sanctuary (Howling Mix) 8:19
3. (Here Comes The) Rain 6:20
4. Revolution (Full Length Re-mix) 5:27
5. Ressurection Joe (Long Version) 6:09

Thank you very kindly Dr. Avalanche for this EP !!!


EAC Log
Exact Audio Copy V0.99 prebeta 5 from 4. May 2009

EAC extraction logfile from 23. February 2010, 1:21

The Cult / The Love Mixes (mini-CD)

Used drive : HL-DT-STDVDRAM GH15F Adapter: 3 ID: 0

Read mode : Secure
Utilize accurate stream : Yes
Defeat audio cache : No
Make use of C2 pointers : No

Read offset correction : 667
Overread into Lead-In and Lead-Out : No
Fill up missing offset samples with silence : Yes
Delete leading and trailing silent blocks : No
Null samples used in CRC calculations : Yes
Used interface : Native Win32 interface for Win NT & 2000
Gap handling : Appended to previous track

Used output format : User Defined Encoder
Selected bitrate : 1024 kBit/s
Quality : High
Add ID3 tag : No
Command line compressor : C:\Program Files\Exact Audio Copy\Flac\flac.exe
Additional command line options : -V -8 -T "artist=%a" -T "title=%t" -T "album=%g" -T "date=%y" -T "tracknumber=%n" -T "genre=%m" %s


TOC of the extracted CD

Track | Start | Length | Start sector | End sector
---------------------------------------------------------
1 | 0:00.33 | 6:59.42 | 33 | 31499
2 | 7:00.00 | 8:19.50 | 31500 | 68974
3 | 15:19.50 | 6:20.00 | 68975 | 97474
4 | 21:39.50 | 5:27.03 | 97475 | 122002
5 | 27:06.53 | 6:09.37 | 122003 | 149714


Track 1

Filename C:\Temp\The Cult\The Love Mixes (mini-CD)\01 She Sells Sanctuary (Long Version).wav

Pre-gap length 0:00:02.33

Peak level 89.3 %
Track quality 100.0 %
Test CRC 41E9A6BB
Copy CRC 41E9A6BB
Accurately ripped (confidence 23) [1132D739]
Copy OK

Track 2

Filename C:\Temp\The Cult\The Love Mixes (mini-CD)\02 She Sells Sanctuary (Howling Mix).wav

Peak level 79.2 %
Track quality 100.0 %
Test CRC BC9C7BCE
Copy CRC BC9C7BCE
Accurately ripped (confidence 23) [5FDECF40]
Copy OK

Track 3

Filename C:\Temp\The Cult\The Love Mixes (mini-CD)\03 (Here Comes The) Rain.wav

Pre-gap length 0:00:00.01

Peak level 82.1 %
Track quality 100.0 %
Test CRC E8BD4EC6
Copy CRC E8BD4EC6
Accurately ripped (confidence 23) [8A74A0FD]
Copy OK

Track 4

Filename C:\Temp\The Cult\The Love Mixes (mini-CD)\04 Revolution (Full Length Remix).wav

Pre-gap length 0:00:01.03

Peak level 98.5 %
Track quality 100.0 %
Test CRC 52A2A464
Copy CRC 52A2A464
Accurately ripped (confidence 23) [CA8582DF]
Copy OK

Track 5

Filename C:\Temp\The Cult\The Love Mixes (mini-CD)\05 Ressurection Joe (Long Version).wav

Pre-gap length 0:00:00.01

Peak level 80.8 %
Track quality 100.0 %
Test CRC 4C9FFB4C
Copy CRC 4C9FFB4C
Accurately ripped (confidence 22) [73FB4BD3]
Copy OK


All tracks accurately ripped

No errors occurred

End of status report




The Cult - The Electric Mixes
EAC rip | FLAC, IMG+CUE, LOG | 146 MB | 1 CD | Complete Scans | RAR 3% Rec. | RapidShare + FileServe
Rock, Hard Rock, Goth Rock | Label: Beggars Banquet | Catalog#: BBP 3 CD | Format: CD, EP | Country: UK | Released: 1989


Tracklist:
1. Love Removal Machine (Extended Version) 5:41
2. Lil' Devil 2:45
3. Wild Flower (Extended Rock Mix) (Remix by François Kevorkian, Ron St. Germain) 5:51
4. King Contrary Man 3:52
5. Conquistador 2:47

Tracks 4-5 Recorded for the Janice Long Show. Session first broadcast on BBC Radio One in 1987.


EAC Log
Exact Audio Copy V0.99 prebeta 5 from 4. May 2009

EAC extraction logfile from 25. November 2009, 0:45

The Cult / The Electric Mixes

Used drive : ATAPI DVD A DH20A4P Adapter: 1 ID: 0

Read mode : Secure
Utilize accurate stream : Yes
Defeat audio cache : Yes
Make use of C2 pointers : No

Read offset correction : 6
Overread into Lead-In and Lead-Out : No
Fill up missing offset samples with silence : Yes
Delete leading and trailing silent blocks : No
Null samples used in CRC calculations : Yes
Used interface : Native Win32 interface for Win NT & 2000

Used output format : Internal WAV Routines
Sample format : 44.100 Hz; 16 Bit; Stereo


TOC of the extracted CD

Track | Start | Length | Start sector | End sector
---------------------------------------------------------
1 | 0:00.32 | 5:40.68 | 32 | 25599
2 | 5:41.25 | 2:44.67 | 25600 | 37966
3 | 8:26.17 | 5:50.53 | 37967 | 64269
4 | 14:16.70 | 3:52.22 | 64270 | 81691
5 | 18:09.17 | 2:46.48 | 81692 | 94189


Range status and errors

Selected range

Filename E:\FLAC\The Cult - The Electric Mixes.wav

Peak level 99.5 %
Range quality 99.9 %
Test CRC 1918CA4C
Copy CRC 1918CA4C
Copy OK

No errors occurred


AccurateRip summary

Track 1 accurately ripped (confidence 2) [ADAD9D80]
Track 2 accurately ripped (confidence 2) [8360E645]
Track 3 accurately ripped (confidence 2) [24E8E730]
Track 4 accurately ripped (confidence 2) [489EDCF2]
Track 5 accurately ripped (confidence 2) [0EBE8B30]

All tracks accurately ripped

End of status report




The Cult - Spirit Walker / Go West
EAC rip | FLAC, IMG+CUE, LOG | 150 MB | 1 CD | Complete Scans | RAR 3% Rec. | RapidShare + FileServe
Rock, Hard Rock, Goth Rock | Label: Beggars Banquet | Catalog#: BBP 6 CD | Format: CD, EP | Country: UK | Released: 1991


Tracklist:
1. Spritwalker 3:53
2. A Flower In The Desert 3:17
3. Bone Bag 3:49
4. Go West (Crazy Spinning Circles) 4:00
5. Sea And Sky 3:34
6. Brothers Grimm (Live) 3:53

Track 2 produced for The David Jensen Show on BBC Radio One.
Track 6 recorded at The Lyceum, London, 20 May 1984.


EAC Log
Exact Audio Copy V0.99 prebeta 5 from 4. May 2009

EAC extraction logfile from 25. November 2009, 0:24

The Cult / Spirit Walker / Go West

Used drive : ATAPI DVD A DH20A4P Adapter: 1 ID: 0

Read mode : Secure
Utilize accurate stream : Yes
Defeat audio cache : Yes
Make use of C2 pointers : No

Read offset correction : 6
Overread into Lead-In and Lead-Out : No
Fill up missing offset samples with silence : Yes
Delete leading and trailing silent blocks : No
Null samples used in CRC calculations : Yes
Used interface : Native Win32 interface for Win NT & 2000

Used output format : Internal WAV Routines
Sample format : 44.100 Hz; 16 Bit; Stereo


TOC of the extracted CD

Track | Start | Length | Start sector | End sector
---------------------------------------------------------
1 | 0:00.33 | 3:53.35 | 33 | 17542
2 | 3:53.68 | 3:17.65 | 17543 | 32382
3 | 7:11.58 | 3:49.37 | 32383 | 49594
4 | 11:01.20 | 4:00.40 | 49595 | 67634
5 | 15:01.60 | 3:34.18 | 67635 | 83702
6 | 18:36.03 | 3:53.50 | 83703 | 101227


Range status and errors

Selected range

Filename E:\FLAC\The Cult - Spirit Walker - Go West.wav

Peak level 100.0 %
Range quality 100.0 %
Test CRC A208F35F
Copy CRC A208F35F
Copy OK

No errors occurred


AccurateRip summary

Track 1 accurately ripped (confidence 8) [BBC3FB88]
Track 2 accurately ripped (confidence 8) [2360883B]
Track 3 accurately ripped (confidence 9) [699A2BB0]
Track 4 accurately ripped (confidence 8) [9CA72978]
Track 5 accurately ripped (confidence 9) [674BD35B]
Track 6 accurately ripped (confidence 8) [791CEAAC]

All tracks accurately ripped

End of status report




The Cult - Resurrection Joe / She Sells Sanctuary
EAC rip | FLAC, IMG+CUE, LOG | 234 MB | 1 CD | Complete Scans | RAR 3% Rec. | RapidShare + HotFile
Rock, Hard Rock, Goth Rock | Label: Beggars Banquet | Catalog#: BBP 7 CD | Format: CD, EP | Country: UK | Released: 1991


Tracklist:
1 Resurrection Joe 4:20
2 She Sells Sanctuary 4:23
3 The Snake 8:16
4 No. 13 4:42
5 Assault On Sanctuary 7:34 (Remix by Steve Brown)
6 Resurrection Joe (Hep Cat Mix) 6:07

Thank you very kindly gviye for sharing this EP!!!


EAC Log
Exact Audio Copy V0.99 prebeta 5 from 4. May 2009

Archivo Log de extracciones desde 18. Febrero 2011, 16:32

The Cult / Ressurection Joe & She Sells Sanctuary

Usar unidad : TOSHIBA DVD-ROM SD-R5002 Adapter: 1 ID: 0

Modo de Lectura : Seguro
Utilizar Corriente Exacta : Sí
Descartar Audio caché : No
Utilizar los punteros C2 : Sí

Corrección de Desplazamiento de Lectura : -1022
Sobreleer tanto en Lead-In como en Lead-Out : Sí
Rellenar las muestras faltantes con silencios : Sí
Eliminar silencios inicial y final : No
Se han usado muestras nulas en los cálculos CRC : No
Interfaz usada : Interfaz propio de Win32 para Windowns NT y 2000

Formato de Salida utilizado : Rutinas WAV Internas
Formato de Muestreo : 44.100 Hz; 16 Bit; Estéreo


TOC del CD extraido

Pista | Inicio | Duración | Sector inicial | Sector final
-------------------------------------------------------------
1 | 0:00.32 | 4:20.73 | 32 | 19604
2 | 4:21.30 | 4:23.32 | 19605 | 39361
3 | 8:44.62 | 8:16.03 | 39362 | 76564
4 | 17:00.65 | 4:42.72 | 76565 | 97786
5 | 21:43.62 | 7:34.70 | 97787 | 131906
6 | 29:18.57 | 6:07.45 | 131907 | 159476


Gama de estados y errores

Seleccionar gama

Nombre de Archivo D:\CD'S RIPPEADOS\The Cult - 1991 - Ressurection Joe & She Sells Sanctuary\The Cult - Ressurection Joe & She Sells Sanctuary.wav

Nivel Pico 100.0 %
Gama de Calidad 99.9 %
Copiar CRC 32C5D0CA
Copia OK

Sin Errores

Final del Informe




The Cult - Rain / Revolution
EAC rip | FLAC, IMG+CUE, LOG | 189 MB | 1 CD | Complete Scans | RAR 3% Rec. | RapidShare + FileServe
Rock, Hard Rock, Goth Rock | Label: Beggars Banquet | Catalog#: BBP 8 CD | Format: CD, EP | Country: UK | Released: 1991


Tracklist:
1. Rain 4:00
2. Little Face 4:57
3. Revolution (Single Remix Version) 4:18
4. All Souls Avenue 4:46
5. Judith 5:30
6. Sunrise 5:16


EAC Log
Exact Audio Copy V0.99 prebeta 5 from 4. May 2009

EAC extraction logfile from 24. November 2009, 23:39

The Cult / Rain / Revolution

Used drive : ATAPI DVD A DH20A4P Adapter: 1 ID: 0

Read mode : Secure
Utilize accurate stream : Yes
Defeat audio cache : Yes
Make use of C2 pointers : No

Read offset correction : 6
Overread into Lead-In and Lead-Out : No
Fill up missing offset samples with silence : Yes
Delete leading and trailing silent blocks : No
Null samples used in CRC calculations : Yes
Used interface : Native Win32 interface for Win NT & 2000

Used output format : Internal WAV Routines
Sample format : 44.100 Hz; 16 Bit; Stereo


TOC of the extracted CD

Track | Start | Length | Start sector | End sector
---------------------------------------------------------
1 | 0:00.32 | 3:59.45 | 32 | 18001
2 | 4:00.02 | 4:56.60 | 18002 | 40261
3 | 8:56.62 | 4:17.45 | 40262 | 59581
4 | 13:14.32 | 4:45.53 | 59582 | 81009
5 | 18:00.10 | 5:30.10 | 81010 | 105769
6 | 23:30.20 | 5:16.25 | 105770 | 129494


Range status and errors

Selected range

Filename E:\FLAC\The Cult - Rain - Revolution.wav

Peak level 100.0 %
Range quality 100.0 %
Test CRC 73D0DDF9
Copy CRC 73D0DDF9
Copy OK

No errors occurred


AccurateRip summary

Track 1 not present in database
Track 2 not present in database
Track 3 not present in database
Track 4 not present in database
Track 5 not present in database
Track 6 not present in database

None of the tracks are present in the AccurateRip database

End of status report




The Cult - Love Removal Machine / Lil' Devil
EAC rip | FLAC, IMG+CUE, LOG | 213 MB | 1 CD | Complete Scans | RAR 3% Rec. | RapidShare + FileServe
Rock, Hard Rock, Goth Rock | Label: Beggars Banquet | Catalog#: BBP 9 CD | Format: CD, EP | Country: UK | Released: 1991


Tracklist:
1. Love Removal Machine (Single Version) 4:21
2. Conquistador 2:53
3. Groove Co. 4:17
4. Zap City 5:15
5. Love Trooper 3:55
6. Wolf Child's Blues 7:21
7. Lil' Devil 2:45

Tracks 2 to 5 produced at the Manor Sessions, Summer 1986.


EAC Log
Exact Audio Copy V0.99 prebeta 5 from 4. May 2009

EAC extraction logfile from 25. November 2009, 0:04

The Cult / Love Removal Machine / Lil' Devil

Used drive : ATAPI DVD A DH20A4P Adapter: 1 ID: 0

Read mode : Secure
Utilize accurate stream : Yes
Defeat audio cache : Yes
Make use of C2 pointers : No

Read offset correction : 6
Overread into Lead-In and Lead-Out : No
Fill up missing offset samples with silence : Yes
Delete leading and trailing silent blocks : No
Null samples used in CRC calculations : Yes
Used interface : Native Win32 interface for Win NT & 2000

Used output format : Internal WAV Routines
Sample format : 44.100 Hz; 16 Bit; Stereo


TOC of the extracted CD

Track | Start | Length | Start sector | End sector
---------------------------------------------------------
1 | 0:00.33 | 4:20.50 | 33 | 19582
2 | 4:21.08 | 2:52.62 | 19583 | 32544
3 | 7:13.70 | 4:17.33 | 32545 | 51852
4 | 11:31.28 | 5:14.62 | 51853 | 75464
5 | 16:46.15 | 3:55.20 | 75465 | 93109
6 | 20:41.35 | 7:21.23 | 93110 | 126207
7 | 28:02.58 | 2:45.30 | 126208 | 138612


Range status and errors

Selected range

Filename E:\FLAC\The Cult - Love Removal Machine - Lil' Devil.wav

Peak level 95.0 %
Range quality 100.0 %
Test CRC B3AE7DD9
Copy CRC B3AE7DD9
Copy OK

No errors occurred


AccurateRip summary

Track 1 accurately ripped (confidence 7) [21E0D4A4]
Track 2 accurately ripped (confidence 8) [B4FE4D25]
Track 3 accurately ripped (confidence 8) [ED5F09C6]
Track 4 accurately ripped (confidence 7) [A42A6622]
Track 5 accurately ripped (confidence 8) [3E0C57B8]
Track 6 accurately ripped (confidence 8) [0D84BABD]
Track 7 accurately ripped (confidence 7) [59DBF552]

All tracks accurately ripped

End of status report




The Cult - Wild Flower (Live 1986/1987)
EAC rip | FLAC, IMG+CUE, LOG | 295 MB | 1 CD | Complete Scans | RAR 3% Rec. | RapidShare + HotFile
Rock, Hard Rock, Goth Rock | Label: Beggars Banquet | Catalog#: BBP 10 CD | Format: CD, EP | Country: UK | Released: 1991


Tracklist:
1. Wild Flower (Single Version) 3:39
2. Wild Flower (Guitar Dub) (Remix by François Kevorkian, Ron St. Germain) 3:40
3. Horse Nation (Live) 3:54
4. Outlaw (Live) 6:43
5. She Sells Sanctuary (Live) 5:03
6. Bone Bag (Live) 9:19
7. Phoenix 5:05
8. Wild Thing / Louie Louie (Live) 6:16

Tracks 3-4 recorded at the Brixton Academy, London, 31 March 1987.
Tracks 5-8 recorded at Music Centre, Utrecht, Netherlands, 24 January 1986.
Louie Louie composed By Richard Berry / Wild Thing composed By Chip Taylor.

Thank you very kindly gviye for sharing this EP!!!


EAC Log
Exact Audio Copy V0.99 prebeta 5 from 4. May 2009

Archivo Log de extracciones desde 18. Febrero 2011, 16:27

The Cult / Wildflower (Live 1986-1987)

Usar unidad : TOSHIBA DVD-ROM SD-R5002 Adapter: 1 ID: 0

Modo de Lectura : Seguro
Utilizar Corriente Exacta : Sí
Descartar Audio caché : No
Utilizar los punteros C2 : Sí

Corrección de Desplazamiento de Lectura : -1022
Sobreleer tanto en Lead-In como en Lead-Out : Sí
Rellenar las muestras faltantes con silencios : Sí
Eliminar silencios inicial y final : No
Se han usado muestras nulas en los cálculos CRC : No
Interfaz usada : Interfaz propio de Win32 para Windowns NT y 2000

Formato de Salida utilizado : Rutinas WAV Internas
Formato de Muestreo : 44.100 Hz; 16 Bit; Estéreo


TOC del CD extraido

Pista | Inicio | Duración | Sector inicial | Sector final
-------------------------------------------------------------
1 | 0:00.33 | 3:39.50 | 33 | 16507
2 | 3:40.08 | 3:40.55 | 16508 | 33062
3 | 7:20.63 | 3:54.00 | 33063 | 50612
4 | 11:14.63 | 6:43.25 | 50613 | 80862
5 | 17:58.13 | 5:03.47 | 80863 | 103634
6 | 23:01.60 | 9:19.63 | 103635 | 145622
7 | 32:21.48 | 5:05.60 | 145623 | 168557
8 | 37:27.33 | 6:16.57 | 168558 | 196814


Gama de estados y errores

Seleccionar gama

Nombre de Archivo D:\CD'S RIPPEADOS\The Cult - 1991 - Wildflower (Live 1986-1987)\The Cult - Wildflower (Live 1986-1987).wav

Nivel Pico 92.8 %
Gama de Calidad 99.9 %
Copiar CRC 8F2DB074
Copia OK

Sin Errores

Final del Informe




The Cult - Fire Woman / Edie (Ciao Baby) / Sun King
EAC rip | FLAC, IMG+CUE, LOG | 295 MB | 1 CD | Complete Scans | RAR 3% Rec. | RapidShare + FileServe
Rock, Hard Rock, Goth Rock | Label: Beggars Banquet | Catalog#: BBP 11 CD | Format: CD, EP | Country: UK | Released: 1991


Tracklist:
1. Fire Woman (Single Version) 4:04
2. Automatic Blues 3:52
3. Messin' Up The Blues 5:21
4. Edie (Ciao Baby) (Single Version) 4:04
5. Bleeding Heart Graffiti 5:03
6. Sun King (Single Version) 4:02
7. Fire Woman (L.A. Rock Mix) (Remix by Billy Duffy, Jamie Stewart, Mike Fraser) 10:09
8. Fire Woman (N.Y.C. Rock Mix) (Remix by Billy Duffy, François Kevorkian, Goh Hotada) 7:21


EAC Log
Exact Audio Copy V0.99 prebeta 5 from 4. May 2009

EAC extraction logfile from 24. November 2009, 19:19

The Cult / Fire Woman / Edie (Ciao Baby) / Sun King

Used drive : ATAPI DVD A DH20A4P Adapter: 1 ID: 0

Read mode : Secure
Utilize accurate stream : Yes
Defeat audio cache : Yes
Make use of C2 pointers : No

Read offset correction : 6
Overread into Lead-In and Lead-Out : No
Fill up missing offset samples with silence : Yes
Delete leading and trailing silent blocks : No
Null samples used in CRC calculations : Yes
Used interface : Native Win32 interface for Win NT & 2000

Used output format : Internal WAV Routines
Sample format : 44.100 Hz; 16 Bit; Stereo


TOC of the extracted CD

Track | Start | Length | Start sector | End sector
---------------------------------------------------------
1 | 0:00.32 | 4:03.53 | 32 | 18309
2 | 4:04.10 | 3:51.72 | 18310 | 35706
3 | 7:56.07 | 5:21.05 | 35707 | 59786
4 | 13:17.12 | 4:03.40 | 59787 | 78051
5 | 17:20.52 | 5:03.20 | 78052 | 100796
6 | 22:23.72 | 4:02.23 | 100797 | 118969
7 | 26:26.20 | 10:08.67 | 118970 | 164636
8 | 36:35.12 | 7:21.13 | 164637 | 197724


Range status and errors

Selected range

Filename E:\FLAC\The Cult - Fire Woman - Edie (Ciao Baby) - Sun King.wav

Peak level 100.0 %
Range quality 100.0 %
Test CRC B0872886
Copy CRC B0872886
Copy OK

No errors occurred


AccurateRip summary

Track 1 not present in database
Track 2 not present in database
Track 3 not present in database
Track 4 not present in database
Track 5 not present in database
Track 6 not present in database
Track 7 not present in database
Track 8 not present in database

None of the tracks are present in the AccurateRip database

End of status report




The Cult - Sweet Soul Sister (Live 1987/1989)
EAC rip | FLAC, IMG+CUE, LOG | 342 MB | 1 CD | Complete Scans | RAR 3% Rec. | RapidShare + FileServe
Rock, Hard Rock, Goth Rock | Label: Beggars Banquet | Catalog#: BBP 12 CD | Format: CD, EP | Country: UK | Released: 1991


Tracklist:
1. Sweet Soul Sister (Single Version) 3:32
2. The River 6:52
3. Love Removal Machine (Live) 4:42
4. Lil' Devil (Live) 2:48
5. Revolution (Live) 5:37
6. Sweet Soul Sister (Live) 5:32
7. American Horse (Live) 7:15
8. Soul Asylum (Live) 7:31
9. Sweet Soul Sister (Rock's Mix) 6:56 (Remix by Billy Duffy, Bob Rock)

Tracks 3-4 recorded at the Brixton Academy, London, 31 March 1987.
Tracks 5-8 recorded at Music Centre, Utrecht, Netherlands, 24 January 1986.


EAC Log
Exact Audio Copy V0.99 prebeta 5 from 4. May 2009

EAC extraction logfile from 24. November 2009, 21:47

The Cult / Sweet Soul Sister (Live 1987-1989)

Used drive : ATAPI DVD A DH20A4P Adapter: 1 ID: 0

Read mode : Secure
Utilize accurate stream : Yes
Defeat audio cache : Yes
Make use of C2 pointers : No

Read offset correction : 6
Overread into Lead-In and Lead-Out : No
Fill up missing offset samples with silence : Yes
Delete leading and trailing silent blocks : No
Null samples used in CRC calculations : Yes
Used interface : Native Win32 interface for Win NT & 2000

Used output format : Internal WAV Routines
Sample format : 44.100 Hz; 16 Bit; Stereo


TOC of the extracted CD

Track | Start | Length | Start sector | End sector
---------------------------------------------------------
1 | 0:00.33 | 3:32.32 | 33 | 15964
2 | 3:32.65 | 6:52.65 | 15965 | 46929
3 | 10:25.55 | 4:42.55 | 46930 | 68134
4 | 15:08.35 | 2:48.08 | 68135 | 80742
5 | 17:56.43 | 5:37.67 | 80743 | 106084
6 | 23:34.35 | 5:32.30 | 106085 | 131014
7 | 29:06.65 | 7:15.05 | 131015 | 163644
8 | 36:21.70 | 7:31.65 | 163645 | 197534
9 | 43:53.60 | 6:56.13 | 197535 | 228747


Range status and errors

Selected range

Filename E:\FLAC\The Cult - Sweet Soul Sister (Live 1987-1989).wav

Peak level 100.0 %
Range quality 100.0 %
Test CRC 825E99CE
Copy CRC 825E99CE
Copy OK

No errors occurred


AccurateRip summary

Track 1 accurately ripped (confidence 6) [64D223CE]
Track 2 accurately ripped (confidence 7) [C47FEC37]
Track 3 accurately ripped (confidence 6) [69D0AF59]
Track 4 accurately ripped (confidence 6) [D2366D66]
Track 5 accurately ripped (confidence 6) [B517ADD9]
Track 6 accurately ripped (confidence 6) [D3E70A8B]
Track 7 accurately ripped (confidence 6) [07F6771C]
Track 8 accurately ripped (confidence 6) [2FF536E6]
Track 9 accurately ripped (confidence 7) [FF850B33]

All tracks accurately ripped

End of status report






+ + + Download Links + + +

The Manor Sessions
RapidShare Part 1 | Part 2
FileServe Part 1 | Part 2

The Love Mixes
RapidShare single file
HotFile single file

The Electric Mixes
RapidShare Part 1 | Part 2
FileServe Part 1 | Part 2

Spirit Walker / Go West
RapidShare Part 1 | Part 2
FileServe Part 1 | Part 2

Resurracion Joe / She Sells Sanctuary
RapidShare Part 1 | Part 2 | Part 3
HotFile Part 1 | Part 2 | Part 3

Rain / Revolution
RapidShare Part 1 | Part 2
FileServe Part 1 | Part 2

Love Removal Machine / Lil' Devil
RapidShare Part 1 | Part 2 | Part 3
FileServe Part 1 | Part 2 | Part 3

Wildflower (Live 1986-1987)
RapidShare Part 1 | Part 2 | Part 3
Hotfile Part 1 | Part 2 | Part 3

Fire Woman / Edie (Ciao Baby) / Sun King
RapidShare Part 1 | Part 2 | Part 3
FileServe Part 1 | Part 2 | Part 3

Sweet Soul Sister (Live 1987-1989)
RapidShare Part 1 | Part 2 | Part 3 | Part 4
FileServe Part 1 | Part 2 | Part 3 | Part 4

-----
Pass: gonzalo76
rec. 3%


To keep this post longer alive, please don't post the links or pass in other sites. Other users will be thankful for that!!!
Mirrors are very welcome!!!
In case you encounter dead links, please send me a private message.


Thank you very much.
Gonzalo




ADVERTISING » Free Fast Download! « ADVERTISING


Posted By: guxt Date: 27 Nov 2009 19:43:34
This is great! Thanks!!
Posted By: gonzalo76 Date: 27 Nov 2009 20:41:43
comment deleted
Posted By: dad18 Date: 28 Nov 2009 16:52:08
Great!!!!

and what this.... http://www.the-cult.com/rarecult.html
Posted By: gonzalo76 Date: 28 Nov 2009 18:24:09
@dad18:

Yes, well... that's a fantastic 6-CD box set limited edition including 90 rare cult tracks.
But this boxset didn't exist in 1991. The "Singles Collection 1984-1990" could be out of date now, but in 1991 this collection was awesome for Cult fans !

IF anybody has this boxset... please share it (in lossless format, of course) !!! :)))

Gonzalo
Posted By: carb0nbase Date: 30 Nov 2009 16:31:34
@gonzalo76

Thank you very much for this incredible share!!! Like I told you, I own one of the missing EPs. I don't seem to have permission to post here at Avaxhome. Is it because I just signed up? Any help would be greatly appreciated. I'll like to share the missing EP that I have.

Thanks,
carb0nbase
Posted By: gonzalo76 Date: 30 Nov 2009 21:13:02
@carb0nbase

Thank you very much carb0nbase for your kindness !!!
The page was updated with your Love Mixes links.

Take care,
Gonzalo
Posted By: lkrushel Date: 02 Dec 2009 17:04:44
Thanks to everyone involved for this great post!
Posted By: thewind Date: 09 May 2010 21:02:59
Thks for huge anf great post.
Pls can't open Love Mixes
can you indicate password, with the one in the file it does not work.

Grazie
Posted By: darmanek2 Date: 16 May 2010 08:48:25
Thanks a lot for this post!!!!
Posted By: carb0nbase Date: 12 Jun 2010 21:16:56
@thewind

The password for the love mixes is in gonzalo76's downloads links text file.

cheers
Posted By: jimdonald Date: 01 Jul 2010 13:45:22
I'm sure I have the missing EPs. If you guys are still wanting them, I'll go through my collection this weekend and upload them for you.

Jim
Posted By: GuyGayMusicLover Date: 28 Jul 2010 15:39:58
I LOVE IT, BABE ! One of the best bands, ever...
Posted By: darmanek2 Date: 13 Aug 2010 19:05:56
jimdonald - UPLOAD Please missing ep's :)
Posted By: gviye Date: 18 Feb 2011 09:11:12
yo tengo esos eps que hacen falta "RESURRECTION JOE • SHE SELLS SANCTUARY" y "WILD FLOWER (LIVE 1986/1987)", acabo de descubrir esta página, como publico algo? si me pueden ayudar se los agradeceria
Posted By: gonzalo76 Date: 20 Feb 2011 23:34:06
Now the post is complete, we have 10 EPs !!!
All links are active!!!
Posted By: Purpleslon Date: 05 Mar 2011 22:27:25
Thank you very much!
Posted By: kwork Date: 05 May 2011 17:43:08
This is an incredible share. Thanks to all involved in getting this set completed. It's all very much appreciated!
Posted By: ca1701 Date: 01 Jul 2011 22:40:00
Thanks!! Muito Obrigado cara!
Posted By: firedownunder Date: 21 Nov 2011 02:48:22
Thank you very much!
Posted By: gustavocejas Date: 13 Oct 2012 05:06:27
Increible. Muchas Gracias!!!!
Posted By: apf Date: 25 Nov 2012 07:55:06
An amazing gift! Thank you so much!
Posted By: hoarfrost Date: 14 Dec 2012 21:10:29
Just a huge thanks!