Loading...

The Swinging Blue Jeans - Live Aus Dem Cascade Beat-Club In Köln (1994) RE-UP

Posted By : perfecta | Date : 23 Jun 2013 13:51:00 | Comments : 3 |
|



The Swinging Blue Jeans - Live Aus Dem Cascade Beat-Club In Köln (1994)
EAC-FLAC Image with CUE & LOG - 257 MB | Complete Scans - 25 MB | MP3 CBR 320 Kbps - 88 MB
Rock / Merseybeat / British Invasion | 37:58 minutes | Label: Repertoire Records / Catalogue # REP 4492-WY

The Swinging Blue Jeans were a four piece 1960s British Merseybeat band. Although they're only remembered today for their 1964 hit "Hippy Hippy Shake", which charted on both sides of the Atlantic - the Swinging Blue Jeans were actually one of the strongest of the Liverpool bands from the '60s British Invasion.


Tracks:

01. Kansas City
02. Johnny Be Good
03. Tutti Frutti
04. Eight Days A Week
05. Chug-A-Lug
06. I've Got A Girl
07. King Of The Road
08. Long Tall Sally
09. Good Golly Miss Molly
10. In The Mood
11. Das ist prima
12. Tutti Frutti, German version [Bonus track]
13. Das ist vorbei [Bonus track]
14. Das ist prima [Bonus track]
15. Good Golly Miss Molly, German version [Bonus track]

EAC-LOG
Exact Audio Copy V0.99 prebeta 4 from 23. January 2008

Отчёт EAC об извлечении, выполненном 8. августа 2008, 15:51

The Swinging blue Jeans / Live Aus Dem Cascade-Beat Club

Дисковод: PLEXTOR DVDR PX-810SA Adapter: 3 ID: 0

Режим чтения : Достоверность
Использование точного потока : Да
Отключение кэша аудио : Да
Использование указателей C2 : Нет

Коррекция смещения при чтении : 48
Способность читать области Lead-in и Lead-out : Нет
Заполнение пропущенных сэмплов тишиной : Да
Удаление блоков с тишиной в начале и конце : Нет
При вычислениях CRC использовались нулевые сэмплы : Нет
Интерфейс : Установленный внешний ASPI-интерфейс

Выходной формат : Monkey's Audio (без потерь)
Выбранный битрейт : Normal Lossless Compression
Качество : Высокий
Добавление ID3-тэга : Да
Утилита сжатия : J:\Program Files\Exact Audio Copy\MAC.exe
Смещение при сжатии : 0


TOC извлечённого CD

Трек | Старт | Длительность | Начальный сектор | Конечный сектор
---------------------------------------------------------------------
1 | 0:00.00 | 2:32.15 | 0 | 11414
2 | 2:32.15 | 2:36.02 | 11415 | 23116
3 | 5:08.17 | 1:57.20 | 23117 | 31911
4 | 7:05.37 | 2:36.20 | 31912 | 43631
5 | 9:41.57 | 1:57.30 | 43632 | 52436
6 | 11:39.12 | 2:24.38 | 52437 | 63274
7 | 14:03.50 | 2:31.27 | 63275 | 74626
8 | 16:35.02 | 2:22.28 | 74627 | 85304
9 | 18:57.30 | 2:02.60 | 85305 | 94514
10 | 21:00.15 | 5:43.02 | 94515 | 120241
11 | 26:43.17 | 2:14.68 | 120242 | 130359
12 | 28:58.10 | 2:01.17 | 130360 | 139451
13 | 30:59.27 | 2:46.05 | 139452 | 151906
14 | 33:45.32 | 2:07.65 | 151907 | 161496
15 | 35:53.22 | 2:04.53 | 161497 | 170849


Характеристики диапазона извлечения и сообщения об ошибках

Выбранный диапазон

Имя файла D:\The Swinging Blue Jeans\The Swinging Blue Jeans - Live Aus Dem Cascade Beat-Club\The Swinging blue Jeans - Live Aus Dem Cascade-Beat Club.wav

Пиковый уровень 98.8 %
Качество диапазона 100.0 %
CRC копии AEA73367
Копирование... OK

Ошибок не произошло


AccurateRip: сводка

Трек 1 нет в базе данных
Трек 2 нет в базе данных
Трек 3 нет в базе данных
Трек 4 нет в базе данных
Трек 5 нет в базе данных
Трек 6 нет в базе данных
Трек 7 нет в базе данных
Трек 8 нет в базе данных
Трек 9 нет в базе данных
Трек 10 нет в базе данных
Трек 11 нет в базе данных
Трек 12 нет в базе данных
Трек 13 нет в базе данных
Трек 14 нет в базе данных
Трек 15 нет в базе данных

Ни одного трека нет в базе AccurateRip

Конец отчёта

................................................................

[CUETools log; Date: 08.09.2011 18:22:49; Version: 2.1.2a]
Truncated 4608 extra samples in some input files.
[AccurateRip ID: 0014ab2f-00ec543b-b808e60f] found.
Track [ CRC ] Status
01 [a2c4902b] (2/2) Accurately ripped
02 [6a99b873] (2/2) Accurately ripped
03 [559fdd56] (2/2) Accurately ripped
04 [b9c3dc4d] (2/2) Accurately ripped
05 [79110fc4] (2/2) Accurately ripped
06 [33dbd36f] (2/2) Accurately ripped
07 [77bba04d] (2/2) Accurately ripped
08 [38ec842c] (2/2) Accurately ripped
09 [05b262b3] (2/2) Accurately ripped
10 [094e60f2] (2/2) Accurately ripped
11 [0bb7991e] (2/2) Accurately ripped
12 [8b9905c3] (2/2) Accurately ripped
13 [f8b6ecad] (2/2) Accurately ripped
14 [50b875ab] (2/2) Accurately ripped
15 [5fdd3841] (2/2) Accurately ripped

Track Peak [ CRC32 ] [W/O NULL] [ LOG ]
-- 98,8 [440756DA] [AEA73367] W/O NULL
01 98,8 [D0C61F93] [D7FCB799]
02 98,8 [A4308AA3] [8A7E1C6D]
03 98,4 [1EE5E7DE] [1A70ABE4]
04 98,4 [B48285AE] [5ED7A07C]
05 95,7 [19D513A4] [53AF3197]
06 98,4 [C95D90E1] [DEEB3EE2]
07 98,4 [006A35C0] [BA522DC3]
08 98,4 [71B0306D] [0EE8D674]
09 98,4 [0DED81E5] [5F3BB6AD]
10 98,4 [08F70CA0] [CA0D8748]
11 98,4 [0A69586F] [D0272F45]
12 93,6 [29F1D778] [F4933D88]
13 90,3 [5D7428D6] [E65FE3D7]
14 85,8 [7B51DF84] [A52268F4]
15 98,4 [C1E8005E] [C07E50A2]


Thanks to the Original ripper!

ADVERTISING » Free Fast Download! « ADVERTISING


Posted By: Georgy1 Date: 08 Sep 2011 17:29:09
Thanks a lot
Posted By: mitches Date: 09 Sep 2011 14:00:20
Thanks a lot!
Posted By: rediffusion360 Date: 24 Jun 2013 00:44:53
Thanks for all the SBJ uploads. Do you have their 1979 album, Jumpin' Jeans?