Loading...

Causa Sui - Free Ride (2007)

Posted By : Necromandus | Date : 10 May 2010 10:47:00 | Comments : 4 |
|



Causa Sui - Free Ride (2007)
EAC Rip | WV, IMG+CUE+LOG | 370 MB | Complete Scans | 15 MB
Psychedelic Rock/Stoner | Label: Elektrohasch | Catalog Number: EH 122 | RAR 3% Rec. | FileServe.com

"This is perfect trip n' roll for a sunny afternoon frying under the sun, while all your worries seep away. Sonically there are a lot less layers in the music. However, this makes it sound massive. The sound is so expansive without being complex, and the tones of each instrument are a lot more dialed. The guitars have this wicked f#cking Hendrix-ian tone to them, and whenever there's wah-wah it's like listening to Woodstock again. Plus he has the chops to match. What does this all mean? Well, a sonically perfect album mixed with amazing music makes for one hell of a sophomore for Causa Sui."

~ StonerRock.com

Tracklist:

1. Free Ride - 2:52
2. Lotus - 7:50
3. White Sun - 9:58
4. Passing Breeze - 10:36
5. Top Of The Hill - 4:07
6. Flowers Of Eventide - 2:08
7. Newborn Road - 15:02

EAC extraction logfile
Exact Audio Copy V0.99 prebeta 5 from 4. May 2009

EAC extraction logfile from 10. April 2010, 9:40

Causa Sui / Free Ride

Used drive : HL-DT-STDVDRAM GSA-4167B Adapter: 1 ID: 1

Read mode : Secure
Utilize accurate stream : Yes
Defeat audio cache : Yes
Make use of C2 pointers : No

Read offset correction : 667
Overread into Lead-In and Lead-Out : No
Fill up missing offset samples with silence : Yes
Delete leading and trailing silent blocks : No
Null samples used in CRC calculations : Yes
Used interface : Installed external ASPI interface

Used output format : Internal WAV Routines
Sample format : 44.100 Hz; 16 Bit; Stereo


TOC of the extracted CD

Track | Start | Length | Start sector | End sector
---------------------------------------------------------
1 | 0:00.00 | 2:51.53 | 0 | 12877
2 | 2:51.53 | 7:50.00 | 12878 | 48127
3 | 10:41.53 | 9:58.15 | 48128 | 92992
4 | 20:39.68 | 10:36.28 | 92993 | 140720
5 | 31:16.21 | 4:07.02 | 140721 | 159247
6 | 35:23.23 | 2:08.08 | 159248 | 168855
7 | 37:31.31 | 15:01.44 | 168856 | 236474


Range status and errors

Selected range

Filename G:\-= lossless work =-\Causa Sui - Free Ride.wav

Peak level 99.6 %
Range quality 100.0 %
Test CRC 6908394D
Copy CRC 6908394D
Copy OK

No errors occurred


AccurateRip summary

Track 1 accurately ripped (confidence 2) [CC8CC46C]
Track 2 accurately ripped (confidence 2) [1224139C]
Track 3 accurately ripped (confidence 2) [F52FC73B]
Track 4 accurately ripped (confidence 2) [3A82BF8D]
Track 5 accurately ripped (confidence 2) [2E351F05]
Track 6 accurately ripped (confidence 2) [0715CC6E]
Track 7 not present in database

6 track(s) accurately ripped
1 track(s) not present in the AccurateRip database

Some tracks could not be verified as accurate

End of status report

• Kasper Mrkus - vocals
• Jess Kahr - bass
• Jakob Scott - drums & percussions
• Jonas Munk - ghuitars, organ, electronics and vocals.

Recorded and Performed by Causa Sui.
Lyrics by Munk.
Recorded and produced by Jonas Munk. Artwork by Jakob Skott
Recorded at Ibiza Sound Studios, Ibiza, Spain

lossless* (wv, 290Mb):
http://www.fileserve.com/file/PmbjzQu/066CS07FRLOS.part1.rar
http://www.fileserve.com/file/yGpy8Qz/066CS07FRLOS.part2.rar
http://www.fileserve.com/file/8udJxhg/066CS07FRLOS.part3.rar
http://www.fileserve.com/file/62BBmRf/066CS07FRLOS.part4.rar

covers (jpg, 15Mb):
http://www.fileserve.com/file/Mj8BYg4/066CS07FRCOV.rar

PASSWORD: www.AvaxHome.ru
Please, do not write these links at any web pages. Enjoy & keep the files alive!

* - EAC Image, standard LOG, embedded cuesheet, Foobar2000 ready
Fully & properly repackaged, Huge thanks to the Original Releaser!

__________

ADVERTISING » Free Fast Download! « ADVERTISING


Posted By: Porkerpipe Date: 10 May 2010 11:23:32
thank you, very nice album indeed
Posted By: erwin234 Date: 10 May 2010 19:30:45
Thank you, it´s a great album. I hear it and it´s like a time travelling back to 1970.
Posted By: holster28 Date: 11 May 2010 18:09:15
"causa sui - summer sessions"

do you have these 3 records lossless by chance?
Posted By: Necromandus Date: 19 May 2010 08:13:40
@holster28
yes. in this month.