Loading...

Rose Tattoo - Rock 'N' Roll Outlaws (1981) [Reissue 2004] RE-UPLOAD

Posted By : Rehabilly | Date : 08 Oct 2010 10:27:00 | Comments : 4 |
|



Rose Tattoo - Rock 'N' Roll Outlaws (1981)
FLAC+CUE+LOG or MP3 CBR 320 | 40:57 min | 323 or 92 MB

Re-issue of the Australian rock legends Rose Tattoo's debut LP in its original UK album sleeve. Includes the UK Top 75 single "Rock N Roll Outlaw" and the Aussie Top 10 "Bad Boy For Love" plus the original version of "Nice Boys" which was later covered by Guns N Roses. Lyrics to all the songs and liner notes by Kerrang!'s Derek Oliver are a feature of the artwork for this essential album.

Tracklist:

01. Rock 'N' Roll Outlaw
02. Nice Boys
03. The Butcher & Fast Eddy
04. One Of The Boys
05. Remedy
06. Bad Boy For Love
07. T.V.
08. Stuck On You
09. Tramp
10. Astra Wally
11. Snow Queen [Bonus track]

EAC Logfile
Exact Audio Copy V0.99 prebeta 3 from 28. July 2007

EAC extraction logfile from 4. February 2008, 14:40

Rose Tattoo / Rock 'N' Roll Outlaws

Used drive : ASUS DRW-1814BL Adapter: 1 ID: 0

Read mode : Secure
Utilize accurate stream : Yes
Defeat audio cache : Yes
Make use of C2 pointers : No

Read offset correction : 6
Overread into Lead-In and Lead-Out : No
Fill up missing offset samples with silence : Yes
Delete leading and trailing silent blocks : No
Null samples used in CRC calculations : Yes
Used interface : Installed external ASPI interface

Used output format : Internal WAV Routines
Sample format : 44.100 Hz; 16 Bit; Stereo


TOC of the extracted CD

Track | Start | Length | Start sector | End sector
---------------------------------------------------------
1 | 0:00.00 | 3:21.32 | 0 | 15106
2 | 3:21.32 | 2:52.60 | 15107 | 28066
3 | 6:14.17 | 6:31.52 | 28067 | 57443
4 | 12:45.69 | 3:11.06 | 57444 | 71774
5 | 15:57.00 | 3:00.11 | 71775 | 85285
6 | 18:57.11 | 3:05.33 | 85286 | 99193
7 | 22:02.44 | 2:00.01 | 99194 | 108194
8 | 24:02.45 | 3:56.00 | 108195 | 125894
9 | 27:58.45 | 2:37.30 | 125895 | 137699
10 | 30:36.00 | 5:57.57 | 137700 | 164531
11 | 36:33.57 | 4:23.28 | 164532 | 184284


Range status and errors

Selected range

Filename C:\200\Rose Tattoo - Rock 'N' Roll Outlaws (1981) [Reissue 2004]\Rose Tattoo - Rock 'N' Roll Outlaws (Reissue 2004).wav

Peak level 97.7 %
Range quality 100.0 %
Test CRC 4DEC6E30
Copy CRC 4DEC6E30
Copy OK

No errors occurred


AccurateRip summary

Track 1 not present in database
Track 2 not present in database
Track 3 not present in database
Track 4 not present in database
Track 5 not present in database
Track 6 not present in database
Track 7 not present in database
Track 8 not present in database
Track 9 not present in database
Track 10 not present in database
Track 11 not present in database

None of the tracks are present in the AccurateRip database

End of status report

all songs by Rose Tattoo except "11" by Rilan
Produced by Harry Vanda and George Young.

• Angry Anderson - throat
• Peter Wells - slide guitar & vocals
• Mick Cocks - lead & rhythm guitar
• Geordie Leach - bass
• Dallas "Digger" Royall - drums

U.K. Release Date: 1981
Reissue Date: January 17, 2005
Label: Captain Oi! (UK)
Catalog No.: AHOY DPX 607


ADVERTISING » Click here to download Ebooks/Magazines for free « ADVERTISING


Posted By: doubletriode Date: 16 Feb 2008 16:06:38
Nice to see someone who likes this furious rock gang too...
I saw them, in the early eighties, opening for Styx in France (can you believe that?). I had hitchiked 100km to see them play. They lasted only 15 minutes before the crowd started to throw bottles and cans at them. What a deception! But those 15 minutes were worth it!!!!!
Cheers and thanks for sharing!
Doubletriode
Posted By: Spanky2 Date: 17 Feb 2008 02:32:01
Thanks a lot!
Posted By: realdealblues Date: 27 Mar 2010 01:21:16
Any chance of a re-up? Would really love to hear a lossless copy of this album. Thanks.
Posted By: sergevlad Date: 08 Oct 2010 10:49:53
thanx a lot!