Loading...

Ronnie Hawkins & The Hawks - The Roulette Years (1958-63) [2CD] {1994 Sequel Records}

Posted By : ruskaval | Date : 24 Sep 2012 13:56:10 | Comments : 5 |
|



Ronnie Hawkins & The Hawks - The Roulette Years (1958-63) [2CD] {1994 Sequel Records}
EAC rip (secure mode) | FLAC+CUE+LOG -> 718 Mb | MP3 @320 -> 326 Mb
Full Artwork @ 600 dpi (jpg) -> 228 Mb
© 1994 Sequel Records | NED CD 266
Rock / Rockabilly / Jazz

This 57-track double-CD set seems like a no-brainer -- get almost all of Ronnie Hawkins' rock & roll recordings in one place. The packaging here is good, thoughtful, and legitimate, but could also be a little misleading to those who are buying this expecting to hear a lot of early work by the musicians who later became the Band -- Levon Helm was aboard on drums from the Hawks' first official recordings, but the remainder didn't begin arriving on the scene until almost two years later; they're only on hand more than one or two at a time for less than half of what's here.

Additionally, taken on its own terms, this is about as solid a rock & roll collection by a single white artist from this period as you're going to find -- in 1959-1960, as Elvis Presley, et al. were generally softening their sounds, Ronnie Hawkins was staying a true rock & roller. The alternate takes and demos featured here are about as worthwhile as any of Hawkins' hits, and the quality of everything about this set makes it practically scream to be purchased -- the detailed notes, the complete sessionography, the bright, clean yet raunchy sound on the masters. A straight, enjoyable (and probably revelatory to some) rock & roll document, Sequel deserves an award for this release -- only Bear Family does it better, and this is a lot cheaper than one of their double CDs.


Ultimate collection, includes four alternate takes and several demos by The Hawks, who later became The Band (Bob Dylan) w. Robbie Robertson, Levon Helm, Garth Hudson & Richard Manual, 58 tracks, 2 CD set.

This is probably the Hawkins CD most worth hunting down for Band fans. It has everything on the Rhino album (except for cut 18, which is a track recorded in 1970). The two-CD set contains a lot of stuff with Levon drumming, and a fair bit of stuff with Robbie and Rick, and several songs with Garth and Richard too. Altogether there are six songs that feature the complete Band lineup backing Hawkins. Three of the songs are shelved recordings from the early 60's with the young Levon singing lead and Robbie and Rick on instruments (along with saxman Jerry Penfund), including an engaging version of "Further on up the Road". Quite a few of the songs have the complete Band/Hawks lineup in place (with one interesting substitution: Roy Buchanen plays bass and Rick Danko is on Rhythm guitar on versions of "Bo Diddley" and the version of "Who Do You Love?" that appears also on the Across the Great Divide box set). Garth Hudson contribute a few things to several cuts on this compilation (he is not playing on the Rhino collection), including a wild series of organ fills to "Bossman" in which you can hear intimations of the Garthhood to come. The CD pair contains a complete record of all the participants in the recording sessions Hawkins played in while with Roulette from 1958 to 1963.

The compilation includes "Suzie-Q", a good, but not great, cover of Ronnie's cousin Dale's hit, the Helm/Robertson/Danko/Penfound song "What a Party", "There's a Screw Loose" (there sure is, this track is worth the CD price), and "Kansas City" by Rockin' Ronald, although Ronnie says it's not him singing on that one.

Peter Viney on the tracks featuring The Band:

"The Roulette Years" is an essential album to have. There are some doubts as to the 100% accuracy of the notes but they list session dates and who did what. In the sense of "The Band" as the five members, I'm not sure there are any. The tracks include Jerry Penfound, the sixth Hawk. So that's the 7/5/63 session (dates are in British order) with the six Hawks: Bossman, High Blood Pressure, Instrumental intro, There's A Screw loose. Then there's a session on 2/2/62 mastered at a much later date with Arkansas (version 2), and two takes of Mojo Man. That's seven tracks, but five "songs."

The 1963 session that yielded Who Do You Love & Bo Diddley has four + Jerry Penfound, but no Garth. It adds Roy Buchanan and King Curtis.

Before that you're into three (Rick, Robbie, Levon) plus Jerry. 5 tracks from 18/9/61, five from 13/9/61, one from 15/9/61. There isn't a keyboard player listed on these at all. Go back earlier and you get just Levon & Robbie, and earlier still, just Levon.


tracklist:
CD1

01. Ruby Baby
02. Forty Days
03. Horace
04. One Of These Days
05. What'cha Gonna Do
06. Wild Little Willy
07. Mary Lou
08. Oh Sugar
09. Odessa
10. Need Your Lovin'
11. My Girl Is Red Hot
12. Dizzy Miss Lizzy
13. Hayride
14. C-Riff Rock
15. Baby Jean
16. Southern Love
17. Someone Like You
18. Hey Boba Lou
19. Love Like You Can
20. You Cheated You Lied
21. Dreams Do Come True
22. Lonely Hours
23. Clara
24. Honey Don'
25. Sick And Tired
26. Ballad Of Caryl Chessman
27. Summertime
28. You Know I Love You

CD2
01. Sexy Ways
02. Come Love
03. Searchin
04. Honey Love
05. I Feel Good
06. Susie Q
07. Matchbox
08. What A Party
09. Bo Diddley
10. Who Do You Love?
11. Bossman
12. High Blood Pressure
13. There's A Screw Loose
14. Arkansas
15. Mojo Man
16. Further On Up The Road
17. Nineteen Years Old
18. Kathy Jean
19. Mojo Man
20. Sexy Ways
21. Ruby Baby
22. Forty Days
23. Hayride
24. Light In The Window
25. My Heart Cries
26. Look For Me
27. Love It Up
28. Your Love Is What I Need
29. Kansas City



EAC log CD1
Exact Audio Copy V0.99 prebeta 5 from 4. May 2009

EAC extraction logfile from 21. September 2012, 1:53

Ronnie Hawkins & The Hawks / The Roulette Years (CD1)

Used drive : ATAPI iHAS124 B Adapter: 6 ID: 2

Read mode : Secure
Utilize accurate stream : Yes
Defeat audio cache : Yes
Make use of C2 pointers : No

Read offset correction : 6
Overread into Lead-In and Lead-Out : No
Fill up missing offset samples with silence : Yes
Delete leading and trailing silent blocks : No
Null samples used in CRC calculations : Yes
Used interface : Native Win32 interface for Win NT & 2000
Gap handling : Appended to previous track

Used output format : User Defined Encoder
Selected bitrate : 1024 kBit/s
Quality : High
Add ID3 tag : No
Command line compressor : C:\Program Files (x86)\FLAC\flac.exe
Additional command line options : -8 -V -T "ARTIST=%a" -T "TITLE=%t" -T "ALBUM=%g" -T "DATE=%y" -T "TRACKNUMBER=%n" -T "GENRE=%m" -T "COMMENT=EAC FLAC -8" %s


TOC of the extracted CD

Track | Start | Length | Start sector | End sector
---------------------------------------------------------
1 | 0:00.33 | 2:17.10 | 33 | 10317
2 | 2:17.43 | 2:17.55 | 10318 | 20647
3 | 4:35.23 | 2:34.27 | 20648 | 32224
4 | 7:09.50 | 2:33.20 | 32225 | 43719
5 | 9:42.70 | 1:59.15 | 43720 | 52659
6 | 11:42.10 | 2:19.18 | 52660 | 63102
7 | 14:01.28 | 2:10.50 | 63103 | 72902
8 | 16:12.03 | 2:15.22 | 72903 | 83049
9 | 18:27.25 | 2:16.50 | 83050 | 93299
10 | 20:44.00 | 2:22.58 | 93300 | 104007
11 | 23:06.58 | 1:51.72 | 104008 | 112404
12 | 24:58.55 | 1:56.38 | 112405 | 121142
13 | 26:55.18 | 2:16.42 | 121143 | 131384
14 | 29:11.60 | 2:06.45 | 131385 | 140879
15 | 31:18.30 | 2:18.68 | 140880 | 151297
16 | 33:37.23 | 2:47.35 | 151298 | 163857
17 | 36:24.58 | 2:29.15 | 163858 | 175047
18 | 38:53.73 | 2:34.47 | 175048 | 186644
19 | 41:28.45 | 2:15.15 | 186645 | 196784
20 | 43:43.60 | 2:10.05 | 196785 | 206539
21 | 45:53.65 | 2:36.63 | 206540 | 218302
22 | 48:30.53 | 2:36.00 | 218303 | 230002
23 | 51:06.53 | 2:36.42 | 230003 | 241744
24 | 53:43.20 | 2:25.48 | 241745 | 252667
25 | 56:08.68 | 2:30.67 | 252668 | 263984
26 | 58:39.60 | 2:40.20 | 263985 | 276004
27 | 61:20.05 | 2:39.00 | 276005 | 287929
28 | 63:59.05 | 2:47.65 | 287930 | 300519


Track 1

Filename C:\EACs\Ronnie Hawkins & The Hawks - The Roulette Years (1958-63) [2CD] {1994 Sequel Records}\CD1\01 - Ruby Baby.wav

Pre-gap length 0:00:02.44

Peak level 97.7 %
Track quality 99.9 %
Test CRC 9404BC7B
Copy CRC 9404BC7B
Accurately ripped (confidence 2) [E8EBA3F1]
Copy OK

Track 2

Filename C:\EACs\Ronnie Hawkins & The Hawks - The Roulette Years (1958-63) [2CD] {1994 Sequel Records}\CD1\02 - Forty Days.wav

Pre-gap length 0:00:01.00

Peak level 97.7 %
Track quality 100.0 %
Test CRC 3C3AC261
Copy CRC 3C3AC261
Accurately ripped (confidence 2) [1273DE6C]
Copy OK

Track 3

Filename C:\EACs\Ronnie Hawkins & The Hawks - The Roulette Years (1958-63) [2CD] {1994 Sequel Records}\CD1\03 - Horace.wav

Pre-gap length 0:00:01.04

Peak level 92.4 %
Track quality 100.0 %
Test CRC 21655BB1
Copy CRC 21655BB1
Accurately ripped (confidence 2) [DF92A216]
Copy OK

Track 4

Filename C:\EACs\Ronnie Hawkins & The Hawks - The Roulette Years (1958-63) [2CD] {1994 Sequel Records}\CD1\04 - One Of These Days.wav

Pre-gap length 0:00:00.89

Peak level 94.5 %
Track quality 100.0 %
Test CRC F0B1712F
Copy CRC F0B1712F
Accurately ripped (confidence 2) [AA08783E]
Copy OK

Track 5

Filename C:\EACs\Ronnie Hawkins & The Hawks - The Roulette Years (1958-63) [2CD] {1994 Sequel Records}\CD1\05 - What'cha Gonna Do.wav

Pre-gap length 0:00:00.33

Peak level 100.0 %
Track quality 99.9 %
Test CRC A32787C0
Copy CRC A32787C0
Accurately ripped (confidence 2) [93007B34]
Copy OK

Track 6

Filename C:\EACs\Ronnie Hawkins & The Hawks - The Roulette Years (1958-63) [2CD] {1994 Sequel Records}\CD1\06 - Wild Little Willy.wav

Pre-gap length 0:00:01.06

Peak level 97.7 %
Track quality 100.0 %
Test CRC 61215123
Copy CRC 61215123
Accurately ripped (confidence 2) [A195AD59]
Copy OK

Track 7

Filename C:\EACs\Ronnie Hawkins & The Hawks - The Roulette Years (1958-63) [2CD] {1994 Sequel Records}\CD1\07 - Mary Lou.wav

Pre-gap length 0:00:01.00

Peak level 97.7 %
Track quality 100.0 %
Test CRC 0259735E
Copy CRC 0259735E
Accurately ripped (confidence 2) [90236129]
Copy OK

Track 8

Filename C:\EACs\Ronnie Hawkins & The Hawks - The Roulette Years (1958-63) [2CD] {1994 Sequel Records}\CD1\08 - Oh Sugar.wav

Pre-gap length 0:00:00.46

Peak level 97.7 %
Track quality 100.0 %
Test CRC 7B2EE0DE
Copy CRC 7B2EE0DE
Accurately ripped (confidence 2) [8C075D97]
Copy OK

Track 9

Filename C:\EACs\Ronnie Hawkins & The Hawks - The Roulette Years (1958-63) [2CD] {1994 Sequel Records}\CD1\09 - Odessa.wav

Pre-gap length 0:00:01.06

Peak level 97.7 %
Track quality 100.0 %
Test CRC EE4C5DDE
Copy CRC EE4C5DDE
Accurately ripped (confidence 2) [FDAB850A]
Copy OK

Track 10

Filename C:\EACs\Ronnie Hawkins & The Hawks - The Roulette Years (1958-63) [2CD] {1994 Sequel Records}\CD1\10 - Need Your Lovin'.wav

Pre-gap length 0:00:00.82

Peak level 82.5 %
Track quality 99.9 %
Test CRC A655BECE
Copy CRC A655BECE
Accurately ripped (confidence 2) [79842AED]
Copy OK

Track 11

Filename C:\EACs\Ronnie Hawkins & The Hawks - The Roulette Years (1958-63) [2CD] {1994 Sequel Records}\CD1\11 - My Girl Is Red Hot.wav

Pre-gap length 0:00:00.93

Peak level 90.5 %
Track quality 100.0 %
Test CRC 8AE2918B
Copy CRC 8AE2918B
Accurately ripped (confidence 2) [61D6252F]
Copy OK

Track 12

Filename C:\EACs\Ronnie Hawkins & The Hawks - The Roulette Years (1958-63) [2CD] {1994 Sequel Records}\CD1\12 - Dizzy Miss Lizzy.wav

Pre-gap length 0:00:01.09

Peak level 97.7 %
Track quality 100.0 %
Test CRC BA480879
Copy CRC BA480879
Accurately ripped (confidence 2) [D8C2A46E]
Copy OK

Track 13

Filename C:\EACs\Ronnie Hawkins & The Hawks - The Roulette Years (1958-63) [2CD] {1994 Sequel Records}\CD1\13 - Hayride.wav

Pre-gap length 0:00:00.53

Peak level 95.7 %
Track quality 100.0 %
Test CRC 9FE1B258
Copy CRC 9FE1B258
Accurately ripped (confidence 2) [ABFE041E]
Copy OK

Track 14

Filename C:\EACs\Ronnie Hawkins & The Hawks - The Roulette Years (1958-63) [2CD] {1994 Sequel Records}\CD1\14 - C-Riff Rock.wav

Pre-gap length 0:00:00.96

Peak level 85.6 %
Track quality 100.0 %
Test CRC CF8FBD60
Copy CRC CF8FBD60
Accurately ripped (confidence 2) [DCAD1DAF]
Copy OK

Track 15

Filename C:\EACs\Ronnie Hawkins & The Hawks - The Roulette Years (1958-63) [2CD] {1994 Sequel Records}\CD1\15 - Baby Jean.wav

Pre-gap length 0:00:00.66

Peak level 97.5 %
Track quality 100.0 %
Test CRC 0144FAAB
Copy CRC 0144FAAB
Accurately ripped (confidence 2) [4B03B47E]
Copy OK

Track 16

Filename C:\EACs\Ronnie Hawkins & The Hawks - The Roulette Years (1958-63) [2CD] {1994 Sequel Records}\CD1\16 - Southern Love.wav

Pre-gap length 0:00:00.50

Peak level 100.0 %
Track quality 100.0 %
Test CRC 697D7DEC
Copy CRC 697D7DEC
Accurately ripped (confidence 2) [B9CBA6DB]
Copy OK

Track 17

Filename C:\EACs\Ronnie Hawkins & The Hawks - The Roulette Years (1958-63) [2CD] {1994 Sequel Records}\CD1\17 - Someone Like You.wav

Pre-gap length 0:00:01.33

Peak level 93.8 %
Track quality 100.0 %
Test CRC 6CDA1DCF
Copy CRC 6CDA1DCF
Accurately ripped (confidence 2) [1376D2CA]
Copy OK

Track 18

Filename C:\EACs\Ronnie Hawkins & The Hawks - The Roulette Years (1958-63) [2CD] {1994 Sequel Records}\CD1\18 - Hey Boba Lou.wav

Pre-gap length 0:00:00.97

Peak level 97.7 %
Track quality 100.0 %
Test CRC 9A78C9A7
Copy CRC 9A78C9A7
Accurately ripped (confidence 2) [A0899D36]
Copy OK

Track 19

Filename C:\EACs\Ronnie Hawkins & The Hawks - The Roulette Years (1958-63) [2CD] {1994 Sequel Records}\CD1\19 - Love Like You Can.wav

Pre-gap length 0:00:00.82

Peak level 87.6 %
Track quality 100.0 %
Test CRC A57083A4
Copy CRC A57083A4
Accurately ripped (confidence 2) [3BA13BDC]
Copy OK

Track 20

Filename C:\EACs\Ronnie Hawkins & The Hawks - The Roulette Years (1958-63) [2CD] {1994 Sequel Records}\CD1\20 - You Cheated You Lied.wav

Pre-gap length 0:00:01.02

Peak level 85.5 %
Track quality 100.0 %
Test CRC 237C13AC
Copy CRC 237C13AC
Accurately ripped (confidence 2) [FA2C0024]
Copy OK

Track 21

Filename C:\EACs\Ronnie Hawkins & The Hawks - The Roulette Years (1958-63) [2CD] {1994 Sequel Records}\CD1\21 - Dreams Do Come True.wav

Pre-gap length 0:00:00.86

Peak level 98.1 %
Track quality 100.0 %
Test CRC 6FC610C9
Copy CRC 6FC610C9
Accurately ripped (confidence 2) [2487BFB3]
Copy OK

Track 22

Filename C:\EACs\Ronnie Hawkins & The Hawks - The Roulette Years (1958-63) [2CD] {1994 Sequel Records}\CD1\22 - Lonely Hours.wav

Pre-gap length 0:00:01.10

Peak level 93.3 %
Track quality 100.0 %
Test CRC 5D77EC7B
Copy CRC 5D77EC7B
Accurately ripped (confidence 2) [0052214B]
Copy OK

Track 23

Filename C:\EACs\Ronnie Hawkins & The Hawks - The Roulette Years (1958-63) [2CD] {1994 Sequel Records}\CD1\23 - Clara.wav

Pre-gap length 0:00:01.06

Peak level 97.7 %
Track quality 100.0 %
Test CRC 6C52F676
Copy CRC 6C52F676
Accurately ripped (confidence 2) [29971125]
Copy OK

Track 24

Filename C:\EACs\Ronnie Hawkins & The Hawks - The Roulette Years (1958-63) [2CD] {1994 Sequel Records}\CD1\24 - Honey Don't.wav

Pre-gap length 0:00:00.82

Peak level 99.3 %
Track quality 100.0 %
Test CRC DFE16671
Copy CRC DFE16671
Accurately ripped (confidence 2) [EA0B0A79]
Copy OK

Track 25

Filename C:\EACs\Ronnie Hawkins & The Hawks - The Roulette Years (1958-63) [2CD] {1994 Sequel Records}\CD1\25 - Sick & Tired.wav

Pre-gap length 0:00:00.97

Peak level 97.7 %
Track quality 100.0 %
Test CRC F134F373
Copy CRC F134F373
Accurately ripped (confidence 2) [5057D8D1]
Copy OK

Track 26

Filename C:\EACs\Ronnie Hawkins & The Hawks - The Roulette Years (1958-63) [2CD] {1994 Sequel Records}\CD1\26 - Ballad Of Caryl Chessman.wav

Pre-gap length 0:00:00.60

Peak level 92.8 %
Track quality 100.0 %
Test CRC D93EC1A3
Copy CRC D93EC1A3
Accurately ripped (confidence 2) [011338A9]
Copy OK

Track 27

Filename C:\EACs\Ronnie Hawkins & The Hawks - The Roulette Years (1958-63) [2CD] {1994 Sequel Records}\CD1\27 - Summertime.wav

Pre-gap length 0:00:00.82

Peak level 91.1 %
Track quality 100.0 %
Test CRC EDF5F3D3
Copy CRC EDF5F3D3
Accurately ripped (confidence 2) [93404DF5]
Copy OK

Track 28

Filename C:\EACs\Ronnie Hawkins & The Hawks - The Roulette Years (1958-63) [2CD] {1994 Sequel Records}\CD1\28 - You Know I Love You.wav

Pre-gap length 0:00:00.42

Peak level 80.9 %
Track quality 100.0 %
Test CRC 705D58EE
Copy CRC 705D58EE
Accurately ripped (confidence 2) [588661CE]
Copy OK


All tracks accurately ripped

No errors occurred

End of status report

EAC log CD2
Exact Audio Copy V0.99 prebeta 5 from 4. May 2009

EAC extraction logfile from 21. September 2012, 11:39

Ronnie Hawkins & The Hawks / The Roulette Years (Disc 2)

Used drive : ATAPI iHAS124 B Adapter: 6 ID: 2

Read mode : Secure
Utilize accurate stream : Yes
Defeat audio cache : Yes
Make use of C2 pointers : No

Read offset correction : 6
Overread into Lead-In and Lead-Out : No
Fill up missing offset samples with silence : Yes
Delete leading and trailing silent blocks : No
Null samples used in CRC calculations : Yes
Used interface : Native Win32 interface for Win NT & 2000
Gap handling : Appended to previous track

Used output format : User Defined Encoder
Selected bitrate : 1024 kBit/s
Quality : High
Add ID3 tag : No
Command line compressor : C:\Program Files (x86)\FLAC\flac.exe
Additional command line options : -8 -V -T "ARTIST=%a" -T "TITLE=%t" -T "ALBUM=%g" -T "DATE=%y" -T "TRACKNUMBER=%n" -T "GENRE=%m" -T "COMMENT=EAC FLAC -8" %s


TOC of the extracted CD

Track | Start | Length | Start sector | End sector
---------------------------------------------------------
1 | 0:00.33 | 2:27.57 | 33 | 11114
2 | 2:28.15 | 3:06.25 | 11115 | 25089
3 | 5:34.40 | 3:17.18 | 25090 | 39882
4 | 8:51.58 | 3:03.47 | 39883 | 53654
5 | 11:55.30 | 1:58.48 | 53655 | 62552
6 | 13:54.03 | 2:21.20 | 62553 | 73147
7 | 16:15.23 | 2:11.52 | 73148 | 83024
8 | 18:27.00 | 2:17.40 | 83025 | 93339
9 | 20:44.40 | 2:53.38 | 93340 | 106352
10 | 23:38.03 | 2:41.52 | 106353 | 118479
11 | 26:19.55 | 1:59.45 | 118480 | 127449
12 | 28:19.25 | 2:28.73 | 127450 | 138622
13 | 30:48.23 | 2:15.10 | 138623 | 148757
14 | 33:03.33 | 2:18.05 | 148758 | 159112
15 | 35:21.38 | 1:58.42 | 159113 | 168004
16 | 37:20.05 | 3:04.05 | 168005 | 181809
17 | 40:24.10 | 3:36.10 | 181810 | 198019
18 | 44:00.20 | 2:27.70 | 198020 | 209114
19 | 46:28.15 | 2:21.60 | 209115 | 219749
20 | 48:50.00 | 2:29.03 | 219750 | 230927
21 | 51:19.03 | 2:37.20 | 230928 | 242722
22 | 53:56.23 | 2:16.55 | 242723 | 252977
23 | 56:13.03 | 2:37.42 | 252978 | 264794
24 | 58:50.45 | 2:53.40 | 264795 | 277809
25 | 61:44.10 | 1:57.73 | 277810 | 286657
26 | 63:42.08 | 2:12.72 | 286658 | 296629
27 | 65:55.05 | 2:08.33 | 296630 | 306262
28 | 68:03.38 | 2:06.67 | 306263 | 315779
29 | 70:10.30 | 2:40.45 | 315780 | 327824


Track 1

Filename C:\EACs\Ronnie Hawkins & The Hawks - The Roulette Years (1958-63) [2CD] {1994 Sequel Records}\CD2\01 - Sexy Ways.wav

Pre-gap length 0:00:02.44

Peak level 100.0 %
Track quality 99.9 %
Test CRC 6FA19DEC
Copy CRC 6FA19DEC
Accurately ripped (confidence 4) [780AF078]
Copy OK

Track 2

Filename C:\EACs\Ronnie Hawkins & The Hawks - The Roulette Years (1958-63) [2CD] {1994 Sequel Records}\CD2\02 - Come Love.wav

Pre-gap length 0:00:00.36

Peak level 93.1 %
Track quality 100.0 %
Test CRC 040DCF6E
Copy CRC 040DCF6E
Accurately ripped (confidence 4) [3202F704]
Copy OK

Track 3

Filename C:\EACs\Ronnie Hawkins & The Hawks - The Roulette Years (1958-63) [2CD] {1994 Sequel Records}\CD2\03 - Searchin'.wav

Pre-gap length 0:00:00.73

Peak level 89.2 %
Track quality 99.9 %
Test CRC F9D919BC
Copy CRC F9D919BC
Accurately ripped (confidence 4) [4F949AA1]
Copy OK

Track 4

Filename C:\EACs\Ronnie Hawkins & The Hawks - The Roulette Years (1958-63) [2CD] {1994 Sequel Records}\CD2\04 - Honey Love.wav

Pre-gap length 0:00:00.73

Peak level 97.7 %
Track quality 99.9 %
Test CRC 1053A148
Copy CRC 1053A148
Accurately ripped (confidence 4) [98C18C3D]
Copy OK

Track 5

Filename C:\EACs\Ronnie Hawkins & The Hawks - The Roulette Years (1958-63) [2CD] {1994 Sequel Records}\CD2\05 - I Feel Good.wav

Pre-gap length 0:00:00.80

Peak level 97.7 %
Track quality 100.0 %
Test CRC A0A4C542
Copy CRC A0A4C542
Accurately ripped (confidence 4) [F87192BA]
Copy OK

Track 6

Filename C:\EACs\Ronnie Hawkins & The Hawks - The Roulette Years (1958-63) [2CD] {1994 Sequel Records}\CD2\06 - Susie Q.wav

Pre-gap length 0:00:00.90

Peak level 75.0 %
Track quality 100.0 %
Test CRC D508055E
Copy CRC D508055E
Accurately ripped (confidence 4) [04AF60FF]
Copy OK

Track 7

Filename C:\EACs\Ronnie Hawkins & The Hawks - The Roulette Years (1958-63) [2CD] {1994 Sequel Records}\CD2\07 - Matchbox.wav

Pre-gap length 0:00:00.97

Peak level 93.7 %
Track quality 100.0 %
Test CRC D23D385A
Copy CRC D23D385A
Accurately ripped (confidence 4) [D0A94C42]
Copy OK

Track 8

Filename C:\EACs\Ronnie Hawkins & The Hawks - The Roulette Years (1958-63) [2CD] {1994 Sequel Records}\CD2\08 - What A Party.wav

Pre-gap length 0:00:01.00

Peak level 94.2 %
Track quality 100.0 %
Test CRC 9257B7E8
Copy CRC 9257B7E8
Accurately ripped (confidence 4) [BB21F5B6]
Copy OK

Track 9

Filename C:\EACs\Ronnie Hawkins & The Hawks - The Roulette Years (1958-63) [2CD] {1994 Sequel Records}\CD2\09 - Bo Diddley.wav

Pre-gap length 0:00:01.16

Peak level 78.3 %
Track quality 100.0 %
Test CRC AFE678B9
Copy CRC AFE678B9
Accurately ripped (confidence 4) [9455ABC8]
Copy OK

Track 10

Filename C:\EACs\Ronnie Hawkins & The Hawks - The Roulette Years (1958-63) [2CD] {1994 Sequel Records}\CD2\10 - Who Do You Love .wav

Pre-gap length 0:00:00.33

Peak level 72.2 %
Track quality 99.9 %
Test CRC CF786722
Copy CRC CF786722
Accurately ripped (confidence 4) [F04048F3]
Copy OK

Track 11

Filename C:\EACs\Ronnie Hawkins & The Hawks - The Roulette Years (1958-63) [2CD] {1994 Sequel Records}\CD2\11 - Bossman.wav

Pre-gap length 0:00:00.69

Peak level 71.9 %
Track quality 100.0 %
Test CRC BE00C2DA
Copy CRC BE00C2DA
Accurately ripped (confidence 4) [8BEC1202]
Copy OK

Track 12

Filename C:\EACs\Ronnie Hawkins & The Hawks - The Roulette Years (1958-63) [2CD] {1994 Sequel Records}\CD2\12 - High Blood Pressure.wav

Pre-gap length 0:00:00.49

Peak level 83.3 %
Track quality 100.0 %
Test CRC 61CB93CC
Copy CRC 61CB93CC
Accurately ripped (confidence 4) [B3D950D6]
Copy OK

Track 13

Filename C:\EACs\Ronnie Hawkins & The Hawks - The Roulette Years (1958-63) [2CD] {1994 Sequel Records}\CD2\13 - There's A Screw Loose.wav

Pre-gap length 0:00:00.73

Peak level 98.6 %
Track quality 99.9 %
Test CRC 1677F68E
Copy CRC 1677F68E
Accurately ripped (confidence 4) [DFFEECFF]
Copy OK

Track 14

Filename C:\EACs\Ronnie Hawkins & The Hawks - The Roulette Years (1958-63) [2CD] {1994 Sequel Records}\CD2\14 - Arkansas.wav

Pre-gap length 0:00:00.60

Peak level 67.4 %
Track quality 100.0 %
Test CRC 8F2136EB
Copy CRC 8F2136EB
Accurately ripped (confidence 4) [7168FD7C]
Copy OK

Track 15

Filename C:\EACs\Ronnie Hawkins & The Hawks - The Roulette Years (1958-63) [2CD] {1994 Sequel Records}\CD2\15 - Mojo Man.wav

Pre-gap length 0:00:00.40

Peak level 88.6 %
Track quality 99.9 %
Test CRC 244F0425
Copy CRC 244F0425
Accurately ripped (confidence 4) [0B5AC947]
Copy OK

Track 16

Filename C:\EACs\Ronnie Hawkins & The Hawks - The Roulette Years (1958-63) [2CD] {1994 Sequel Records}\CD2\16 - Farther On Up The Road.wav

Pre-gap length 0:00:01.00

Peak level 93.9 %
Track quality 100.0 %
Test CRC ACA852EA
Copy CRC ACA852EA
Accurately ripped (confidence 4) [DD66BB42]
Copy OK

Track 17

Filename C:\EACs\Ronnie Hawkins & The Hawks - The Roulette Years (1958-63) [2CD] {1994 Sequel Records}\CD2\17 - Nineteen Years Old.wav

Pre-gap length 0:00:01.06

Peak level 100.0 %
Track quality 100.0 %
Test CRC 28B974AB
Copy CRC 28B974AB
Accurately ripped (confidence 4) [2FD3ED7F]
Copy OK

Track 18

Filename C:\EACs\Ronnie Hawkins & The Hawks - The Roulette Years (1958-63) [2CD] {1994 Sequel Records}\CD2\18 - Kathy Jean.wav

Pre-gap length 0:00:01.06

Peak level 99.9 %
Track quality 100.0 %
Test CRC 6A649497
Copy CRC 6A649497
Accurately ripped (confidence 4) [5C86EAE0]
Copy OK

Track 19

Filename C:\EACs\Ronnie Hawkins & The Hawks - The Roulette Years (1958-63) [2CD] {1994 Sequel Records}\CD2\19 - Mojo Man (Alt take).wav

Pre-gap length 0:00:01.93

Peak level 90.6 %
Track quality 99.9 %
Test CRC 71B11986
Copy CRC 71B11986
Accurately ripped (confidence 4) [23E35A52]
Copy OK

Track 20

Filename C:\EACs\Ronnie Hawkins & The Hawks - The Roulette Years (1958-63) [2CD] {1994 Sequel Records}\CD2\20 - Sexy Ways (Alt take).wav

Pre-gap length 0:00:01.80

Peak level 91.8 %
Track quality 100.0 %
Test CRC 4DCFEC3C
Copy CRC 4DCFEC3C
Accurately ripped (confidence 4) [E85CA1E6]
Copy OK

Track 21

Filename C:\EACs\Ronnie Hawkins & The Hawks - The Roulette Years (1958-63) [2CD] {1994 Sequel Records}\CD2\21 - Ruby Baby (Alt take).wav

Pre-gap length 0:00:01.64

Peak level 100.0 %
Track quality 100.0 %
Test CRC C62C61B9
Copy CRC C62C61B9
Accurately ripped (confidence 4) [94C53C64]
Copy OK

Track 22

Filename C:\EACs\Ronnie Hawkins & The Hawks - The Roulette Years (1958-63) [2CD] {1994 Sequel Records}\CD2\22 - Forty Days (Alt take).wav

Pre-gap length 0:00:01.37

Peak level 95.6 %
Track quality 100.0 %
Test CRC 1AF70BBD
Copy CRC 1AF70BBD
Accurately ripped (confidence 4) [7BA3D030]
Copy OK

Track 23

Filename C:\EACs\Ronnie Hawkins & The Hawks - The Roulette Years (1958-63) [2CD] {1994 Sequel Records}\CD2\23 - Hayride (Demo).wav

Pre-gap length 0:00:01.20

Peak level 97.5 %
Track quality 100.0 %
Test CRC 13523EB9
Copy CRC 13523EB9
Accurately ripped (confidence 4) [FBF4607B]
Copy OK

Track 24

Filename C:\EACs\Ronnie Hawkins & The Hawks - The Roulette Years (1958-63) [2CD] {1994 Sequel Records}\CD2\24 - Light In The Window (Demo).wav

Pre-gap length 0:00:01.00

Peak level 100.0 %
Track quality 100.0 %
Test CRC 984E8ADD
Copy CRC 984E8ADD
Accurately ripped (confidence 4) [8AD9E702]
Copy OK

Track 25

Filename C:\EACs\Ronnie Hawkins & The Hawks - The Roulette Years (1958-63) [2CD] {1994 Sequel Records}\CD2\25 - My Heart Cries (Demo).wav

Pre-gap length 0:00:01.06

Peak level 79.5 %
Track quality 100.0 %
Test CRC 67DE470C
Copy CRC 67DE470C
Accurately ripped (confidence 4) [C23EF1A2]
Copy OK

Track 26

Filename C:\EACs\Ronnie Hawkins & The Hawks - The Roulette Years (1958-63) [2CD] {1994 Sequel Records}\CD2\26 - Look For Me (Demo).wav

Pre-gap length 0:00:00.73

Peak level 73.7 %
Track quality 100.0 %
Test CRC F4ED25B6
Copy CRC F4ED25B6
Accurately ripped (confidence 4) [70B3CAF3]
Copy OK

Track 27

Filename C:\EACs\Ronnie Hawkins & The Hawks - The Roulette Years (1958-63) [2CD] {1994 Sequel Records}\CD2\27 - Love It Up (Demo).wav

Pre-gap length 0:00:00.69

Peak level 98.8 %
Track quality 100.0 %
Test CRC EC7F300F
Copy CRC EC7F300F
Accurately ripped (confidence 4) [9AAE435B]
Copy OK

Track 28

Filename C:\EACs\Ronnie Hawkins & The Hawks - The Roulette Years (1958-63) [2CD] {1994 Sequel Records}\CD2\28 - Your Love Is What I Need (Rockin' Ronald).wav

Pre-gap length 0:00:00.86

Peak level 100.0 %
Track quality 100.0 %
Test CRC FD56636A
Copy CRC FD56636A
Accurately ripped (confidence 4) [FCFF5A25]
Copy OK

Track 29

Filename C:\EACs\Ronnie Hawkins & The Hawks - The Roulette Years (1958-63) [2CD] {1994 Sequel Records}\CD2\29 - Kansas City (Rockin' Ronald).wav

Pre-gap length 0:00:00.86

Peak level 86.1 %
Track quality 100.0 %
Test CRC 83E55782
Copy CRC 83E55782
Accurately ripped (confidence 4) [F9A4AB94]
Copy OK


All tracks accurately ripped

No errors occurred

End of status report




UPLOADED Linkz

BITSHARE Linkz

DEPOSITFILES Linkz

RAPIDGATOR Linkz

TURBOBIT Linkz


FILEPOST Linkz

http://filepost.com/files/c4cmcbd5/hawki_roulet_1.part1.rar
http://filepost.com/files/cdb5e7d3/hawki_roulet_1.part2.rar
http://filepost.com/files/mfeceb7a/hawki_roulet_1.part3.rar
http://filepost.com/files/aeb7f81a/hawki_roulet_1.part4.rar
http://filepost.com/files/c8e58mda/hawki_roulet_1_MP.part1.rar
http://filepost.com/files/5113bdb9/hawki_roulet_1_MP.part2.rar
http://filepost.com/files/269941f3/hawki_roulet_2.part1.rar
http://filepost.com/files/7e5ad3b7/hawki_roulet_2.part2.rar
http://filepost.com/files/f4aa4m1f/hawki_roulet_2.part3.rar
http://filepost.com/files/332fcce9/hawki_roulet_2.part4.rar
http://filepost.com/files/9m327159/hawki_roulet_2_MP.part1.rar
http://filepost.com/files/ee9m6223/hawki_roulet_2_MP.part2.rar
http://filepost.com/files/e9bd7fdm/hawki_roulet_ARTWORK.part1.rar
http://filepost.com/files/d8m3m61c/hawki_roulet_ARTWORK.paart2.rar
ADVERTISING » Very Fast Download! « ADVERTISING


Posted By: sgallagheav Date: 24 Sep 2012 23:12:11
FilePost links show as "File Not Found"
Posted By: garyw77 Date: 25 Sep 2012 02:08:43
Filepost Links are dead, please re-up???
Posted By: dipstick Date: 25 Sep 2012 04:14:24
This is a great set! Very uncommon post. Thank you for the great copy!
Posted By: obx Date: 25 Sep 2012 05:18:40
filepost not work
Posted By: arthur_66 Date: 25 Sep 2012 16:17:25
Love this Band - Great Post!