Loading...

Queen - Live At Wembley [Japan, TOCP-7091&2] (1986/1992)

Posted By : stfine | Date : 21 Dec 2010 01:32:36 | Comments : 6 |
|


Queen - Live At Wembley Japan, TOCP-7091&2 (1986/1992)

Queen - Live At Wembley [Japan, TOCP-7091&2] (1986/1992)
FLAC image + cue + log + scans w/booklet | 01:00:25 + 00:50:17 | 853 MB (+3%)
Rock, Hard rock | Label: EMI, TOCP-7091 & TOCP-7092

This July 1986 concert, performed at London's huge Wembley Stadium to an audience of 150,000 people, highlights the fact that Queen's natural habitat truly was the stadium. Every cut here is a winner, and some are the definitive versions of the songs, blowing the studio renditions out of the water. The band performs twenty-eight songs, including "Brighton Rock," "One Vision," "Another One Bites the Dust," "Bohemian Rhapsody" and more!

Tracklist

CD 1
1. One Vision [05:50]
2. Tie Your Mother Down [03:52]
3. In The Lap Of The Gods [02:43]
4. Seven Seas Of Rhye [01:18]
5. Tear It Up [02:12]
6. A Kind Of Magic [08:41]
7. Under Pressure [03:41]
8. Another One Bites The Dust [04:53]
9. Who Wants To Live Forever [05:16]
10. I Want To Break Free [03:33]
11. Impromptu [02:56]
12. Brighton Rock Solo [09:10]
13. Now I'm Here [06:20]
Total time 01:00:25

EAC log
Exact Audio Copy V0.99 prebeta 4 from 23. January 2008

EAC extraction logfile from 20. December 2010, 10:42

Queen / Live At Wembley '86 (CD1, TOCP-7091)

Used drive : PLEXTOR DVDR PX-760A Adapter: 0 ID: 0

Read mode : Secure
Utilize accurate stream : Yes
Defeat audio cache : Yes
Make use of C2 pointers : No

Read offset correction : 30
Overread into Lead-In and Lead-Out : No
Fill up missing offset samples with silence : Yes
Delete leading and trailing silent blocks : No
Null samples used in CRC calculations : Yes
Used interface : Installed external ASPI interface

Used output format : Internal WAV Routines
Sample format : 44.100 Hz; 16 Bit; Stereo


TOC of the extracted CD

Track | Start | Length | Start sector | End sector
---------------------------------------------------------
1 | 0:00.32 | 5:50.50 | 32 | 26331
2 | 5:51.07 | 3:52.30 | 26332 | 43761
3 | 9:43.37 | 2:43.50 | 43762 | 56036
4 | 12:27.12 | 1:18.33 | 56037 | 61919
5 | 13:45.45 | 2:12.10 | 61920 | 71829
6 | 15:57.55 | 8:41.42 | 71830 | 110946
7 | 24:39.22 | 3:41.08 | 110947 | 127529
8 | 28:20.30 | 4:53.45 | 127530 | 149549
9 | 33:14.00 | 5:16.12 | 149550 | 173261
10 | 38:30.12 | 3:33.70 | 173262 | 189306
11 | 42:04.07 | 2:56.70 | 189307 | 202576
12 | 45:01.02 | 9:10.70 | 202577 | 243896
13 | 54:11.72 | 6:20.03 | 243897 | 272399


Range status and errors

Selected range

Filename D:\bki71\Queen - Live At Wembley '86 (CD1, TOCP-7091).wav

Peak level 94.0 %
Range quality 100.0 %
Test CRC 4931B407
Copy CRC 4931B407
Copy OK

No errors occurred


AccurateRip summary

Track 1 accurately ripped (confidence 3) [6116D34F]
Track 2 accurately ripped (confidence 3) [9E3F0AD1]
Track 3 accurately ripped (confidence 3) [6C98887C]
Track 4 accurately ripped (confidence 3) [2EB9E3DA]
Track 5 accurately ripped (confidence 3) [5D31C589]
Track 6 accurately ripped (confidence 3) [6D2852BA]
Track 7 accurately ripped (confidence 3) [A23B2EB2]
Track 8 accurately ripped (confidence 3) [B7A0C58A]
Track 9 accurately ripped (confidence 3) [6A93C303]
Track 10 accurately ripped (confidence 3) [72928C12]
Track 11 accurately ripped (confidence 3) [CD1F654D]
Track 12 accurately ripped (confidence 3) [873413E0]
Track 13 accurately ripped (confidence 3) [0E4FC220]

All tracks accurately ripped

End of status report

CD 2
1. Love Of My Life [04:48]
2. Is This The World We Created [02:58]
3. (You're So Square) Baby I Don't Care [01:36]
4. Hello Mary Lou (Goodbye Heart) [01:50]
5. Tutti Frutti [02:53]
6. Gimme Some Lovin' [00:55]
7. Bohemian Rhapsody [05:50]
8. Hammer To Fall [05:56]
9. Crazy Little Thing Called Love [06:05]
10. Big Spender [01:06]
11. Radio Ga Ga [05:57]
12. We Will Rock You [02:47]
13. Friends Will Be Friends [02:06]
14. We Are The Champions [04:04]
15. God Save The Queen [01:26]
Total time 00:50:17

EAC log
Exact Audio Copy V0.99 prebeta 4 from 23. January 2008

EAC extraction logfile from 20. December 2010, 11:02

Queen / Live At Wembley '86 (CD2, TOCP-7092)

Used drive : PLEXTOR DVDR PX-760A Adapter: 0 ID: 0

Read mode : Secure
Utilize accurate stream : Yes
Defeat audio cache : Yes
Make use of C2 pointers : No

Read offset correction : 30
Overread into Lead-In and Lead-Out : No
Fill up missing offset samples with silence : Yes
Delete leading and trailing silent blocks : No
Null samples used in CRC calculations : Yes
Used interface : Installed external ASPI interface

Used output format : Internal WAV Routines
Sample format : 44.100 Hz; 16 Bit; Stereo


TOC of the extracted CD

Track | Start | Length | Start sector | End sector
---------------------------------------------------------
1 | 0:00.32 | 4:48.58 | 32 | 21689
2 | 4:49.15 | 2:58.30 | 21690 | 35069
3 | 7:47.45 | 1:36.10 | 35070 | 42279
4 | 9:23.55 | 1:50.57 | 42280 | 50586
5 | 11:14.37 | 2:53.48 | 50587 | 63609
6 | 14:08.10 | 0:55.02 | 63610 | 67736
7 | 15:03.12 | 5:50.40 | 67737 | 94026
8 | 20:53.52 | 5:56.65 | 94027 | 120791
9 | 26:50.42 | 6:05.65 | 120792 | 148231
10 | 32:56.32 | 1:06.40 | 148232 | 153221
11 | 34:02.72 | 5:57.23 | 153222 | 180019
12 | 40:00.20 | 2:47.60 | 180020 | 192604
13 | 42:48.05 | 2:06.20 | 192605 | 202074
14 | 44:54.25 | 4:04.72 | 202075 | 220446
15 | 48:59.22 | 1:27.13 | 220447 | 226984


Range status and errors

Selected range

Filename D:\bki71\Queen - Live At Wembley '86 (CD2, TOCP-7092).wav

Peak level 100.0 %
Range quality 100.0 %
Test CRC 72790014
Copy CRC 72790014
Copy OK

No errors occurred


AccurateRip summary

Track 1 accurately ripped (confidence 3) [98881B19]
Track 2 accurately ripped (confidence 3) [DA078D7D]
Track 3 accurately ripped (confidence 3) [C7CF0509]
Track 4 accurately ripped (confidence 3) [A61246A4]
Track 5 accurately ripped (confidence 3) [5B95A04B]
Track 6 accurately ripped (confidence 3) [DA5CC586]
Track 7 accurately ripped (confidence 3) [6EE905CD]
Track 8 accurately ripped (confidence 3) [DE634395]
Track 9 accurately ripped (confidence 3) [32237F10]
Track 10 accurately ripped (confidence 3) [ACCE7CA8]
Track 11 accurately ripped (confidence 3) [9060F2C8]
Track 12 accurately ripped (confidence 3) [ADE591F2]
Track 13 accurately ripped (confidence 3) [E9F32FD9]
Track 14 accurately ripped (confidence 3) [C9F0451A]
Track 15 accurately ripped (confidence 3) [B9B7F1F7]

All tracks accurately ripped

End of status report

Recorded live on Saturday July 12, 1986 during the Magic Tour at Wembley Stadium in London, England.

Personnel
Freddie Mercury - lead vocals, piano, guitar
Brian May - guitars, keyboards, backing vocals
John Deacon - bass guitars, backing vocals
Roger Taylor - drums, percussion, backing vocals
with
Spike Edney - keyboards, piano, guitar, backing vocals

Many thanks to the original releaser (bki71)!



ADVERTISING » Very Fast Download! « ADVERTISING


Posted By: freddie007 Date: 21 Dec 2010 03:18:06
perfect rip and upload....!!thank you very very much for this awesome japanese edition,please if you can upload " made in heaven " ..thank you so much again for all your remarkable works :)
Posted By: nickron Date: 21 Dec 2010 08:45:05
Thank you!
I wished you had uploaded to Hotfile... :(
Posted By: cmsv Date: 21 Dec 2010 10:15:41
Great!!! Nice job. Many thanks.
Posted By: grissyboy Date: 21 Dec 2010 12:28:28
Hotfile has a 30 minute wait period, far too long if you don't have have sub for it.
FileServe much better
Posted By: tbmusic Date: 21 Dec 2010 17:15:43
HF pls
Posted By: stfine Date: 21 Dec 2010 17:33:57
Sorry, I don't provide HF mirrors for big (>200 MB) files.