Loading...

[Re-Up] A Flock Of Seagulls - A Flock Of Seagulls (1982)

Posted By : franklee | Date : 05 Sep 2008 03:17:00 | Comments : 6 |
|



A Flock Of Seagulls - A Flock Of Seagulls
Jive Records | 1982 | New Wave/Rock | EAC, Log, Cue | Flac | 41:09 | 284 MB

Personnel
* Mike Score - lead vocals, keyboards
* Paul Reynolds - lead guitar, backing vocals
* Frank Maudsley - bass guitar, backing vocals
* Ali Score - drums

Review by Tom Demalon, AllMusic
The Liverpool quintet A Flock of Seagulls first gained attention in the dance clubs with "Telecommunication," included on this debut release. The band benefited from heavy play on MTV and quickly became known for their outrageous fashion and lead singer Mike Score's waterfall-like haircut. However, their self-titled debut is an enjoyable romp that was set apart from other synth-heavy acts of the time by Paul Reynolds' unique guitar style. The kinetic "I Ran (So Far Away)" became a video staple and a Top Ten radio hit. "A Space Age Love Song," with its synthesizer washes and echo-laden guitar, also managed to score at radio. The rest of the album consists of hyperactive melodies, synthesizer noodlings, and electronic drumming. The lyrics are forgettable. In fact, they rarely expand on the song titles, but its all great fun and a wonderful collection of new wave ear candy.

EAC Log
Exact Audio Copy V0.99 prebeta 4 from 23. January 2008

EAC extraction logfile from 15. June 2008, 7:31

A Flock Of Seagulls / A Flock Of Seagulls

Used drive : Optiarc DVD RW AD-7173A Adapter: 0 ID: 0

Read mode : Secure
Utilize accurate stream : Yes
Defeat audio cache : No
Make use of C2 pointers : Yes

Read offset correction : 48
Overread into Lead-In and Lead-Out : No
Fill up missing offset samples with silence : Yes
Delete leading and trailing silent blocks : No
Null samples used in CRC calculations : Yes
Used interface : Native Win32 interface for Win NT & 2000
Gap handling : Appended to previous track

Used output format : User Defined Encoder
Selected bitrate : 192 kBit/s
Quality : High
Add ID3 tag : Yes
Command line compressor : C:\Program Files\Exact Audio Copy\Flac\flac.exe
Additional command line options : -8 -A tukey(0.25) -A gauss(0.1875) -b 4096 -V -T "artist=%a" -T "title=%t" -T "album=%g" -T "date=%y" -T "tracknumber=%n" -T "genre=%m" %s --sector-align


TOC of the extracted CD

Track | Start | Length | Start sector | End sector
---------------------------------------------------------
1 | 0:00.00 | 3:52.15 | 0 | 17414
2 | 3:52.15 | 2:53.08 | 17415 | 30397
3 | 6:45.23 | 5:06.03 | 30398 | 53350
4 | 11:51.26 | 3:48.15 | 53351 | 70465
5 | 15:39.41 | 4:29.74 | 70466 | 90714
6 | 20:09.40 | 2:31.25 | 90715 | 102064
7 | 22:40.65 | 4:41.40 | 102065 | 123179
8 | 27:22.30 | 2:46.27 | 123180 | 135656
9 | 30:08.57 | 2:30.35 | 135657 | 146941
10 | 32:39.17 | 2:53.48 | 146942 | 159964
11 | 35:32.65 | 5:40.25 | 159965 | 185489
12 | 43:45.15 | 2:10.26 | 196890 | 206665


Track 1

Filename C:\A Flock Of Seagulls - 1982 - A Flock Of Seagulls\01. Modern Love Is Automatic.wav

Pre-gap length 0:00:02.00

Peak level 84.2 %
Track quality 100.0 %
Copy CRC F79283AC
Track not present in AccurateRip database
Copy OK

Track 2

Filename C:\A Flock Of Seagulls - 1982 - A Flock Of Seagulls\02. Messages.wav

Peak level 81.0 %
Track quality 100.0 %
Copy CRC 74C282D4
Track not present in AccurateRip database
Copy OK

Track 3

Filename C:\A Flock Of Seagulls - 1982 - A Flock Of Seagulls\03. I Ran.wav

Peak level 76.5 %
Track quality 100.0 %
Copy CRC EF46C2ED
Track not present in AccurateRip database
Copy OK

Track 4

Filename C:\A Flock Of Seagulls - 1982 - A Flock Of Seagulls\04. Space Age Love Song.wav

Peak level 84.5 %
Track quality 99.9 %
Copy CRC 2F70C245
Track not present in AccurateRip database
Copy OK

Track 5

Filename C:\A Flock Of Seagulls - 1982 - A Flock Of Seagulls\05. You Can Run.wav

Peak level 81.6 %
Track quality 100.0 %
Copy CRC 6DDC1967
Track not present in AccurateRip database
Copy OK

Track 6

Filename C:\A Flock Of Seagulls - 1982 - A Flock Of Seagulls\06. Telecommunication.wav

Peak level 61.8 %
Track quality 100.0 %
Copy CRC 05549AAA
Track not present in AccurateRip database
Copy OK

Track 7

Filename C:\A Flock Of Seagulls - 1982 - A Flock Of Seagulls\07. Standing In The Doorway.wav

Peak level 70.4 %
Track quality 100.0 %
Copy CRC 298249F6
Track not present in AccurateRip database
Copy OK

Track 8

Filename C:\A Flock Of Seagulls - 1982 - A Flock Of Seagulls\08. Don't Ask Me.wav

Peak level 64.7 %
Track quality 100.0 %
Copy CRC C278601E
Track not present in AccurateRip database
Copy OK

Track 9

Filename C:\A Flock Of Seagulls - 1982 - A Flock Of Seagulls\09. D. N. A..wav

Peak level 67.1 %
Track quality 100.0 %
Copy CRC A3B3CECF
Track not present in AccurateRip database
Copy OK

Track 10

Filename C:\A Flock Of Seagulls - 1982 - A Flock Of Seagulls\10. Tokyo.wav

Peak level 70.1 %
Track quality 100.0 %
Copy CRC 1B56C33E
Track not present in AccurateRip database
Copy OK

Track 11

Filename C:\A Flock Of Seagulls - 1982 - A Flock Of Seagulls\11. Man Made.wav

Peak level 71.3 %
Track quality 100.0 %
Copy CRC 2CEDF195
Track not present in AccurateRip database
Copy OK


None of the tracks are present in the AccurateRip database

No errors occurred

End of status report


Tracklist:

01 - Modern Love Is Automatic
02 - Messages
03 - I Ran
04 - Space Age Love Song
05 - You Can Run
06 - Telecommunication
07 - Standing In The Doorway
08 - Don't Ask Me
09 - D. N. A.
10 - Tokyo
11 - Man Made



ADVERTISING » Very Fast Download! « ADVERTISING


Posted By: rory13 Date: 05 Sep 2008 11:24:09
thanks a ton, special thanks for FF/ RS is a slow suxx...
Posted By: EktorasClub Date: 07 Sep 2008 17:47:40
I love 80's...
Thanks a lot franklee!
Posted By: karobo Date: 01 Mar 2011 03:35:02
!!! LINKS ARE DEAD !!! RE_UPLOAD PLZ !!! THX !!!
Posted By: walrus64 Date: 13 Mar 2011 21:15:48
Please, reload!!! thanks!!!
Posted By: RodStein Date: 03 Jul 2011 06:53:45
Thanks a lot!
Posted By: karobo Date: 20 Jan 2012 10:09:27
! Thx ! Thx ! Thx !