Loading...

Steve Hillage - BBC Radio 1 Live In Concert (1992)

Posted By : Designol | Date : 03 Apr 2012 09:31:09 | Comments : 3 |
|



Steve Hillage - BBC Radio 1 Live In Concert (1992)
EAC | APE | Image (Cue&Log) ~ 483 Mb (incl 5%) | Mp3 (CBR320/Stereo) ~ 169 Mb (incl 5%) | Scans ~ 42 Mb
Genre: Prog Rock, Psychedelic Rock, Space Rock | Label: Windsong | # WIN CD 014 | Time: 01:10:36

Culled from two BBC radio concerts in 1976 and 1979, this is much better than Hillage's studio albums, with the performances offering a funky kick and a real sense of adventure, since he can stretch out with his guitar work. And he does that right from the outset, with "Hurdy Gurdy Glissando," where he quotes the theme from Lawrence of Arabia -- a presage of his future involvement in Arabic music, perhaps. Blessed with a band that can not only stop on a dime but also improvise like demons, Hillage produces some astonishingly fluid fretwork, with arrangements that bring in plenty of compound, complex time signatures and key shifts, but which are ultimately elastic in their construction. And he doesn't limit himself to electric guitar -- he's not afraid to offer more delicate acoustic sensibilities. The highlight, though, has to be a scorching version of George Harrison's "It's All Too Much," which not only heightens the Eastern-flavored psychedelia, but lets Hillage unleash some of his most scorching axe work yet, tearing into the song like a starving man given a five-course meal. "1988 Activator" gets all the punch of punk, simple and to the point, but still manages to cram in a stunning solo along with the slightly sneering (albeit positive) vocal. It's the odd one out amidst a more mid-tempo, very spiritual set, which flows and segues beautifully. And if you can take lyrics about salmon, crystals, and Om, it's even better. Perhaps the ideal advice is to turn off the words -- Hillage isn't a great singer, anyway -- and listen to the music. It won't disappoint, even when, as on parts of "Crystal City," it offers some proto-new age swooshing synths; it's all done so well that you can't say no. And keep on listening; it develops into a riff fest where the guitar solos come loud, long, and inventive. Overall, a great record.

Review by Chris Nickson, Allmusic.com

Biography
Wiki

Tracklist:


01. Hurdy Gurdy Glissando (10:59)
02. Unidentified (Flying Being) (10:16)
03. Radio (07:43)
04. New Age Synthesis (08:30)
05. Electrick Gypsies (04:51)
06. The Salmon Song (07:24)
07. It's All Too Much (06:24)
08. 1988 Activator (02:31)
09. Crystal City (03:21)
10. Activation Meditation (01:10)
11. The Glorious Om Riff (07:24)


EAC log
Отчёт EAC об извлечении, выполненном 8. сентября 2007, 13:15 для диска:
Steve Hillage / BBC Radio 1 Live In Concert

Дисковод: PIONEER DVD-RW DVR-108 Adapter: 1 ID: 0
Режим чтения: Достоверный (C2: нет, Точный поток: да, Отключение кэша: да)
Коррекция смещения при чтении: 48
Способность читать области Lead-in и Lead-out : Нет

Выходной формат: Внутренние WAV-операции
44.100 Гц; 16 бит; стерео

Другие параметры:
Заполнение пропущенных сэмплов тишиной : Да
Удаление блоков с тишиной в начале и конце : Нет
Установленный внешний ASPI-интерфейс


Характеристики диапазона извлечения и сообщения об ошибках
Выбранный диапазон
Имя файла D:\New Torrents\Steve Hillage - BBC Radio 1 Live In Concert\Steve Hillage - BBC Radio 1 Live In Concert.wav

Пиковый уровень 100.0 %
Качество диапазона 100.0 %
CRC 46884CE1
Копирование... OK

Ошибок не произошло

Конец отчёта

AccurateRip log
[CUETools log; Date: 30.03.2012 21:13:03; Version: 2.1.1]
Pregap length 00:00:32.
[CTDB TOCID: CxBWUcfbsqnBSjfGTIs_w0McMuo-] found.
[ CTDBID ] Status
[c1929204] (3/3) Accurately ripped
[AccurateRip ID: 00227104-011bc02b-a4108d0b] found.
Track [ CRC ] Status
01 [5f49bdbf] (2/6) Accurately ripped
02 [bc0596ce] (0/4) No match but offset
03 [fe4a6adb] (2/6) Accurately ripped
04 [32ec53e8] (2/6) Accurately ripped
05 [1648f4a6] (2/6) Accurately ripped
06 [0b179d96] (2/6) Accurately ripped
07 [7e3030bb] (2/6) Accurately ripped
08 [8bc4b8a7] (2/6) Accurately ripped
09 [cfd0a6e3] (2/6) Accurately ripped
10 [b206b771] (2/6) Accurately ripped
11 [60dc2534] (2/6) Accurately ripped
Offsetted by 92:
01 [20f74e93] (4/6) Accurately ripped
02 [6e53937d] (4/4) Accurately ripped
03 [55afb1ef] (4/6) Accurately ripped
04 [005eb566] (4/6) Accurately ripped
05 [f22000ce] (4/6) Accurately ripped
06 [1aef89c3] (4/6) Accurately ripped
07 [a240c420] (4/6) Accurately ripped
08 [8d93cf3a] (4/6) Accurately ripped
09 [e5dab6a0] (4/6) Accurately ripped
10 [8a3baf2f] (4/6) Accurately ripped
11 [1651fa63] (4/6) Accurately ripped

Track Peak [ CRC32 ] [W/O NULL]
-- 100,0 [46884CE1] [8E0B0C28]
01 100,0 [7981D9E6] [66691888]
02 100,0 [550F4546] [3544E6D0]
03 100,0 [85DAAD62] [1FEF0939]
04 98,2 [BC57D7A5] [635C486D]
05 98,4 [A3C9B73B] [73D4072D]
06 100,0 [92F5A70C] [FA9F927C]
07 97,7 [DB8F71C7] [46BA89F0]
08 97,2 [8A6C7D55] [4FC00A15]
09 100,0 [9A7C6874] [C077B403]
10 39,0 [69ECC634] [F08A63EF]
11 100,0 [39D19B66] [EEA5ABB9]




All thanks to original releaser - Uncle Remus


Other albums by Steve Hillage in My Blog


ADVERTISING » Very Fast Download! « ADVERTISING


Posted By: Absinthium Date: 03 Apr 2012 21:04:30
Thank you so much for another daily dose of Hillage! YOU ROCK!!!
Posted By: nrwsps Date: 05 May 2012 09:39:21
Many Thanks.
Posted By: R@F Date: 12 Nov 2012 10:03:06
part 3 is not available