Loading...

Giles, Giles and Fripp: The Brondesbury Tapes (1968) lossless

Posted By : juanchito | Date : 10 Jan 2010 20:29:05 | Comments : 3 |
|



Giles, Giles and Fripp: The Brondesbury Tapes (1968)
progressive rock | EAC Rip, log | APE, Img.+ cue | Scan | 407 MB


Giles, Giles and Fripp were an English late sixties band featuring brothers Michael Giles on drums and vocals, Peter Giles on bass guitar and vocals, and Robert Fripp on guitar.
The group formed in their native Bournemouth, Dorset area in 1967 when the Giles brothers sought a singing keyboard player through a newspaper advertisement. Fripp, a non-singing guitarist responded but was hired anyway. Between late 1967 and late 1968 the group lived in Brondesbury Road, London. Throughout their time at the house they made many demo recordings. The early home demos soon led to a record contract with UK Decca's newly formed Deram Records division


tracklist

01. Hypocrite (3:41)
02. Digging My Lawn (a) (1:59)
03. Tremelo Study In A Major (Spanish Suite) (1:41)
04. Newly Weds (1:53)
05. Suite No. 1 (5:34)
06. Scrivens (2:15)
07. Make It Today (A) (3:27)
08. Digging My Lawn (b) (1:55)
09. Why Don't You Just Drop In (i) (3:40)
10. I Talk To The Wind (1) (3:18)
11. Under The Sky (Tracklist:) (3:53)
12. Plastic Pennies (2:19)
13. Passages Of Time (3:32)
14. Under The Sky (Tracklist:Tracklist:) (2:50)
15. Murder (2:41)
16. I Talk To The Wind (2) (3:15)
17. Erudite Eyes (6:47)
18. Make It Today (B) (4:46)
19. Wonderland (6:09)
20. Why Don't You Just Drop In (ii) (3:42)
21. She Is Loaded (3:12)

EAC log
EAC extraction logfile from 13. December 2006, 6:17 for CD
Giles, Giles And Fripp / The Brondesbury Tapes

Used drive : SAMSUNG CD-R/RW SW-240B Adapter: 3 ID: 1
Read mode : Secure with NO C2, accurate stream, disable cache
Read offset correction : 97
Overread into Lead-In and Lead-Out : No

Used output format : Internal WAV Routines
44.100 Hz; 16 Bit; Stereo

Other options :
Fill up missing offset samples with silence : Yes
Delete leading and trailing silent blocks : No
Installed external ASPI interface


Track 1
Filename F:\Seeds\Giles, Giles And Fripp - The Brondesbury Tapes (1968) [FLAC]\01 - Hypocrite.wav

Pre-gap length 0:00:02.00

Peak level 64.4 %
Track quality 100.0 %
Test CRC F2A51D1A
Copy CRC F2A51D1A
Copy OK

Track 2
Filename F:\Seeds\Giles, Giles And Fripp - The Brondesbury Tapes (1968) [FLAC]\02 - Digging My Lawn (1).wav

Pre-gap length 0:00:01.82

Peak level 69.2 %
Track quality 100.0 %
Test CRC 24C6C5E1
Copy CRC 24C6C5E1
Copy OK

Track 3
Filename F:\Seeds\Giles, Giles And Fripp - The Brondesbury Tapes (1968) [FLAC]\03 - Tremelo Study In A Major (Spanish Suite).wav

Pre-gap length 0:00:01.64

Peak level 47.4 %
Track quality 100.0 %
Test CRC 63443E0C
Copy CRC 63443E0C
Copy OK

Track 4
Filename F:\Seeds\Giles, Giles And Fripp - The Brondesbury Tapes (1968) [FLAC]\04 - Newly Weds.wav

Pre-gap length 0:00:02.20

Peak level 79.4 %
Track quality 100.0 %
Test CRC 88C4831F
Copy CRC 88C4831F
Copy OK

Track 5
Filename F:\Seeds\Giles, Giles And Fripp - The Brondesbury Tapes (1968) [FLAC]\05 - Suite No. 1.wav

Pre-gap length 0:00:03.25

Peak level 66.0 %
Track quality 100.0 %
Test CRC 7DCA679B
Copy CRC 7DCA679B
Copy OK

Track 6
Filename F:\Seeds\Giles, Giles And Fripp - The Brondesbury Tapes (1968) [FLAC]\06 - Scrivens.wav

Pre-gap length 0:00:01.78

Peak level 68.4 %
Track quality 100.0 %
Test CRC EB39323B
Copy CRC EB39323B
Copy OK

Track 7
Filename F:\Seeds\Giles, Giles And Fripp - The Brondesbury Tapes (1968) [FLAC]\07 - Make It Today (1).wav

Pre-gap length 0:00:02.77

Peak level 72.8 %
Track quality 100.0 %
Test CRC 15EE5799
Copy CRC 15EE5799
Copy OK

Track 8
Filename F:\Seeds\Giles, Giles And Fripp - The Brondesbury Tapes (1968) [FLAC]\08 - Digging My Lawn (1).wav

Pre-gap length 0:00:02.42

Peak level 69.8 %
Track quality 100.0 %
Test CRC 3829FE8F
Copy CRC 3829FE8F
Copy OK

Track 9
Filename F:\Seeds\Giles, Giles And Fripp - The Brondesbury Tapes (1968) [FLAC]\09 - Why Don't You Just Drop In (1).wav

Pre-gap length 0:00:03.64

Peak level 93.7 %
Track quality 100.0 %
Test CRC 4B6A967E
Copy CRC 4B6A967E
Copy OK

Track 10
Filename F:\Seeds\Giles, Giles And Fripp - The Brondesbury Tapes (1968) [FLAC]\10 - I Talk To The Wind (1).wav

Pre-gap length 0:00:02.10

Peak level 99.9 %
Track quality 100.0 %
Test CRC CE84452E
Copy CRC CE84452E
Copy OK

Track 11
Filename F:\Seeds\Giles, Giles And Fripp - The Brondesbury Tapes (1968) [FLAC]\11 - Under The Sky (1).wav

Pre-gap length 0:00:03.89

Peak level 61.0 %
Track quality 100.0 %
Test CRC ABE31CB4
Copy CRC ABE31CB4
Copy OK

Track 12
Filename F:\Seeds\Giles, Giles And Fripp - The Brondesbury Tapes (1968) [FLAC]\12 - Plastic Pennies.wav

Pre-gap length 0:00:01.77

Peak level 63.4 %
Track quality 100.0 %
Test CRC 2B70145D
Copy CRC 2B70145D
Copy OK

Track 13
Filename F:\Seeds\Giles, Giles And Fripp - The Brondesbury Tapes (1968) [FLAC]\13 - Passages Of Time.wav

Pre-gap length 0:00:01.22

Peak level 67.8 %
Track quality 100.0 %
Test CRC 47034FC0
Copy CRC 47034FC0
Copy OK

Track 14
Filename F:\Seeds\Giles, Giles And Fripp - The Brondesbury Tapes (1968) [FLAC]\14 - Under The Sky (2).wav

Pre-gap length 0:00:01.69

Peak level 71.0 %
Track quality 100.0 %
Test CRC 4521D03F
Copy CRC 4521D03F
Copy OK

Track 15
Filename F:\Seeds\Giles, Giles And Fripp - The Brondesbury Tapes (1968) [FLAC]\15 - Murder.wav

Pre-gap length 0:00:02.14

Peak level 85.4 %
Track quality 100.0 %
Test CRC 665C04A9
Copy CRC 665C04A9
Copy OK

Track 16
Filename F:\Seeds\Giles, Giles And Fripp - The Brondesbury Tapes (1968) [FLAC]\16 - I Talk To The Wind (2).wav

Pre-gap length 0:00:02.24

Peak level 83.7 %
Track quality 100.0 %
Test CRC 42C481FF
Copy CRC 42C481FF
Copy OK

Track 17
Filename F:\Seeds\Giles, Giles And Fripp - The Brondesbury Tapes (1968) [FLAC]\17 - Erudite Eyes.wav

Pre-gap length 0:00:03.38

Peak level 89.4 %
Track quality 100.0 %
Test CRC 4C1E1787
Copy CRC 4C1E1787
Copy OK

Track 18
Filename F:\Seeds\Giles, Giles And Fripp - The Brondesbury Tapes (1968) [FLAC]\18 - Make It Today (2).wav

Pre-gap length 0:00:01.40

Peak level 82.9 %
Track quality 100.0 %
Test CRC 304D575F
Copy CRC 304D575F
Copy OK

Track 19
Filename F:\Seeds\Giles, Giles And Fripp - The Brondesbury Tapes (1968) [FLAC]\19 - Wonderland.wav

Pre-gap length 0:00:01.16

Peak level 90.6 %
Track quality 100.0 %
Test CRC 1611D1B9
Copy CRC 1611D1B9
Copy OK

Track 20
Filename F:\Seeds\Giles, Giles And Fripp - The Brondesbury Tapes (1968) [FLAC]\20 - Why Don't You Just Drop In (2).wav

Pre-gap length 0:00:03.97

Peak level 77.8 %
Track quality 100.0 %
Test CRC 8B63FACD
Copy CRC 8B63FACD
Copy OK

Track 21
Filename F:\Seeds\Giles, Giles And Fripp - The Brondesbury Tapes (1968) [FLAC]\21 - She Is Loaded.wav

Pre-gap length 0:00:02.85

Peak level 68.9 %
Track quality 100.0 %
Test CRC E86C9A54
Copy CRC E86C9A54
Copy OK

No errors occured


End of status report


Michael Giles - drums
Peter Giles - bass guitar
Robert Fripp - guitar
Ian McDonald - saxophone and flute
Judy Dyble - vocals (подробнее в буклете)


links:
http://rapidshare.com/files/329153684/1968.part1.rar
http://rapidshare.com/files/329200170/1968.part2.rar
http://rapidshare.com/files/329255017/1968.part3.rar
pass: juanchito



ADVERTISING » Click here to download Ebooks/Magazines for free « ADVERTISING


Posted By: jorgeluiz Date: 10 Jan 2010 23:50:44
thanks one more time juanchito :-)
Posted By: 4-F Date: 11 Jan 2010 16:48:25
Not a very common album to see posted for sure. Thank you!
Posted By: martinius Date: 11 Jan 2010 19:18:28
Hmmmm. Pre-King Crimson podríamos llamarlo. No conocía este disco, si el otro
que posteaste después. Muchas gracias por compartir estas maravillas....
Me muero de ganas de oirlo.....