Loading...

Celeste - Celeste [Principe di un giorno] (1976)

Posted By : krevin | Date : 21 Mar 2010 15:28:13 | Comments : 1 |
|



Celeste - Celeste [Principe di un giorno] (1976)
1CD | EAC rip | FLAC, IMG+CUE, LOG |Scans | 202 Mb
Genre: Italian progressive rock


History
Along with Museo Rosenbach, Celeste were born from the ashes of the legendary Il Sistema, a band from Sanremo whose only posthumous released recordings don't give a real idea of what they were.
Formed by drummer Ciro Perrino and sax player Leonardo Lagorio (who had played with Museo Rosenbach in their early days) this four piece went in a totally different direction from their beginnings, playing a mostly acoustic, dreamy and delicate prog. A studio group, they had a very limited live experience.
Their first album, Celeste, also known as Principe di un giorno, was released by the small Grog label only in 1976, but the tracks had been composed in 1973 and recorded in 1974. It contains seven tracks, with pastoral lyrics and a style not far from the softer side of early King Crimson.
/ italianprog.com /

Tracklist
01.Principe Di Giorno
02.Favole Antiche
03.Eftus
04.Giochi Nella Notte
05.La Grande Isola
06.La Danza Del Fato
07.L'imbroglio

LOG
Exact Audio Copy V0.99 prebeta 5 from 4. May 2009

Отчёт EAC об извлечении, выполненном 13. марта 2010, 19:58

Celeste / Celeste

Дисковод: Optiarc DVD RW AD-5170A Adapter: 1 ID: 0

Режим чтения : Достоверность
Использование точного потока : Да
Отключение кэша аудио : Нет
Использование указателей C2 : Нет

Коррекция смещения при чтении : 48
Способность читать области Lead-in и Lead-out : Нет
Заполнение пропущенных сэмплов тишиной : Да
Удаление блоков с тишиной в начале и конце : Нет
При вычислениях CRC использовались нулевые сэмплы : Да
Интерфейс : Встроенный Win32-интерфейс для Win NT/2000

Выходной формат : Внутренние WAV-операции
Формат сэмплов : 44.100 Гц; 16 бит; стерео


TOC извлечённого CD

Трек | Старт | Длительность | Начальный сектор | Конечный сектор
---------------------------------------------------------------------
1 | 0:00.00 | 6:13.00 | 0 | 27974
2 | 6:13.00 | 8:17.07 | 27975 | 65256
3 | 14:30.07 | 4:18.23 | 65257 | 84629
4 | 18:48.30 | 8:10.50 | 84630 | 121429
5 | 26:59.05 | 5:06.50 | 121430 | 144429
6 | 32:05.55 | 3:52.17 | 144430 | 161846
7 | 35:57.72 | 1:07.03 | 161847 | 166874


Характеристики диапазона извлечения и сообщения об ошибках

Выбранный диапазон

Имя файла J:\DOC\_Music1\___\Celeste - Celeste (1976)\Celeste - Celeste.wav

Пиковый уровень 93.7 %
Качество диапазона 100.0 %
CRC копии EC1A3181
Копирование... OK

Ошибок не произошло

Конец отчёта



ADVERTISING » Click here to download Ebooks/Magazines for free « ADVERTISING


Posted By: blackwaterpark Date: 21 Mar 2010 17:24:30
Great album = 9,5/10!

Thanks :-)

____________________________

PS. Please >> upload Museo Rosenbach ''Zarathustra'' (Japanese Edition) !!!