Loading...

The Rubettes - Wear It's At (1974) [Remastered 2010]

Posted By : perfecta | Date : 20 Apr 2012 15:04:12 | Comments : 0 |
|



The Rubettes - Wear It's At (1974) [RM 2010]
EAC-FLAC Image with CUE & LOG - 331 MB | Covers included | MP3 CBR 320 Kbps - 112 MB
Glam Rock | TT - 47:25 minutes | Label: Cherry Red / 7T's Records U.K. | Cat. # GLAMCD 104

Formed in 1973 in England, the Rubettes were originally organized as a session outfit by Wayne Bickerton of Polydor A&R. Inspired by the successes of Sha Na Na, Mud, and Showaddywaddy, they combined Glam Rock presentation with a Rock & Roll Revival sound.

More info @ Wikipedia

At last a CD release in it s own right for the debut LP by The Rubettes which reached No.32 in the German charts and No.42 in Holland on it s release in 1974. Includes the world-wide smash hit Sugar Baby Love which hit No.1 in the UK, Germany, Holland, Switzerland, Norway, Belgium and Australia, No.3 in France, No.2 in both Italy and Ireland as well as giving the band their one and only USA Top 40 hit by reaching No.37. Sugar Baby Love was featured in the smash hit film Muriel's Wedding and was declared the Most Successful Oldie by German TV station RTL. Also included is the UK No.12 hit single Tonight which also hit No.4 in Germany. And two rare non LP B-sides have been added as bonus tracks!


Tracks:

01. Way Back In The Fifties
02. Rock Is Dead
03. Tonight
04. The Way Of Love
05. Rumours
06. Your Love
07. For Ever
08. Sugar Baby Love
09. Teenage Dream
10. Rock & Roll Survival
11. When Your Sixteen
12. Saturday Night
13. You Could Have Told Me [Bonus track]
14. Silent Movie Queen [Bonus track]

CD Mastered by Tim Turan at Turan Audio.

EAC-LOG
Exact Audio Copy V0.99 prebeta 5 from 4. May 2009

Отчёт EAC об извлечении, выполненном 27. июля 2010, 15:22

The Rubettes / Wear It's At (2010 Remaster 7T's)

Дисковод: PLEXTOR DVDR PX-716A Adapter: 2 ID: 0

Режим чтения : Достоверность
Использование точного потока : Да
Отключение кэша аудио : Да
Использование указателей C2 : Нет

Коррекция смещения при чтении : 30
Способность читать области Lead-in и Lead-out : Нет
Заполнение пропущенных сэмплов тишиной : Да
Удаление блоков с тишиной в начале и конце : Нет
При вычислениях CRC использовались нулевые сэмплы : Да
Интерфейс : Встроенный Win32-интерфейс для Win NT/2000

Выходной формат : Пользовательский кодировщик
Выбранный битрейт : 1024 kBit/s
Качество : Высокий
Добавление ID3-тэга : Да
Утилита сжатия : C:\Program Files\Exact Audio Copy\wapet.exe
Дополнительные параметры : %d -t "Album Artist=%a" -t "Releaser=% wwphil" -t "Album=%g" -t "Year=%y" -t "Genre=%m" mac.exe %s %d -c2000


TOC извлечённого CD

Трек | Старт | Длительность | Начальный сектор | Конечный сектор
---------------------------------------------------------------------
1 | 0:00.00 | 3:46.38 | 0 | 16987
2 | 3:46.38 | 3:08.39 | 16988 | 31126
3 | 6:55.02 | 3:41.56 | 31127 | 47757
4 | 10:36.58 | 3:18.67 | 47758 | 62674
5 | 13:55.50 | 2:29.58 | 62675 | 73907
6 | 16:25.33 | 5:26.68 | 73908 | 98425
7 | 21:52.26 | 3:59.17 | 98426 | 116367
8 | 25:51.43 | 3:31.31 | 116368 | 132223
9 | 29:22.74 | 3:00.44 | 132224 | 145767
10 | 32:23.43 | 3:22.32 | 145768 | 160949
11 | 35:46.00 | 2:46.23 | 160950 | 173422
12 | 38:32.23 | 2:18.20 | 173423 | 183792
13 | 40:50.43 | 2:48.28 | 183793 | 196420
14 | 43:38.71 | 3:46.32 | 196421 | 213402


Характеристики диапазона извлечения и сообщения об ошибках

Выбранный диапазон

Имя файла D:\The Rubettes - Wear It's At (2010 Remaster 7T's)\The Rubettes - Wear It's At (2010 Remaster 7T's).wav

Пиковый уровень 97.7 %
Качество диапазона 100.0 %
CRC теста B56FB073
CRC копии B56FB073
Копирование... OK

Ошибок не произошло


AccurateRip: сводка

Трек 1 нет в базе данных
Трек 2 нет в базе данных
Трек 3 нет в базе данных
Трек 4 нет в базе данных
Трек 5 нет в базе данных
Трек 6 нет в базе данных
Трек 7 нет в базе данных
Трек 8 нет в базе данных
Трек 9 нет в базе данных
Трек 10 нет в базе данных
Трек 11 нет в базе данных
Трек 12 нет в базе данных
Трек 13 нет в базе данных
Трек 14 нет в базе данных

Ни одного трека нет в базе AccurateRip

Конец отчёта
.........................................
[AccurateRip ID: 001939f0-010b8e91-c10b1d0e] found.
Track [ CRC ] Status
01 [c4967fab] (4/4) Accurately ripped
02 [68d2c161] (4/4) Accurately ripped
03 [f8536eae] (4/4) Accurately ripped
04 [9e2840a0] (4/4) Accurately ripped
05 [127c666e] (4/4) Accurately ripped
06 [a96a807b] (4/4) Accurately ripped
07 [4ab887c2] (4/4) Accurately ripped
08 [d6ec6c0b] (4/4) Accurately ripped
09 [64bf0051] (4/4) Accurately ripped
10 [58b4939e] (4/4) Accurately ripped
11 [1d6685b5] (4/4) Accurately ripped
12 [3e28c34d] (4/4) Accurately ripped
13 [c1eecb97] (4/4) Accurately ripped
14 [922c9d85] (4/4) Accurately ripped

Track Peak [ CRC32 ] [W/O NULL] [ LOG ]
-- 97,7 [B56FB073] [1D9DB075] CRC32
01 97,7 [357FBD33] [48C7638D]
02 97,7 [4DD2AF8E] [2A43B5AA]
03 97,7 [37BD4962] [08470E67]
04 97,7 [6C9444E6] [1A3D9485]
05 97,7 [E365C8BE] [CE11BD89]
06 97,7 [D6AB94D2] [16D140DE]
07 97,7 [47DAF1C3] [06E942F7]
08 97,7 [5A0304AB] [B67FFA43]
09 97,7 [95E0D148] [6A3E8563]
10 97,7 [A3651FF0] [18C71048]
11 97,7 [801ACECB] [CE00A04B]
12 97,7 [1713B259] [2A2979DF]
13 97,7 [182F9DBC] [6347F90D]
14 97,7 [F4C80E91] [C5F8F2B1]


Thanks to wwphil!

lossless
Part 1 | Part 2 | Part 3

MP3 CBR 320

Covers included in both types of archives.


ADVERTISING » Free Fast Download! « ADVERTISING


No comments for the news