Loading...

The Monkees - Original Album Series (2009) 5 CD *Re-Up*

Posted By : firepower | Date : 10 Aug 2014 05:24:00 | Comments : 16 |
|



The Monkees - Original Album Series (2009) 5 CD
EAC, FLAC image, CUE+LOG - 1.45 GB | MP3 CBR 320 - 575 MB | Artwork included
Rock | 5% recovery record | Source: Internet - Rhino

The Monkees were talented singers, musicians, and songwriters who made a handful of the finest pop singles of their day (as well as a few first-rate albums) and delivered exciting, entertaining live shows. But at a time when rock music was becoming more self-conscious and "serious," the hipper echelons of the music press often lambasted the Monkees, largely because they didn't come together organically but through the casting process for a television series, and they initially didn't write the bulk of their own material or play all the instruments on their records. The fact they later took creative control of their music was often overlooked, and the quality of their music, which featured the work of some of the finest session players and songwriters of the 1960s, often seemed to be beside the point. Time has ultimately vindicated the Monkees, and their music still sounds fresh and engaging decades after it was recorded, but in some circles they never fully shook being branded as "the Pre-Fab Four," no matter how far they moved from the circumstances that brought them together.




Tracklist:

The Monkees (1966)
01 - (Theme From) The Monkees
02 - Saturday's Child
03 - I Wanna Be Free
04 - Tomorrow's Gonna Be Another Day
05 - Papa Gene's Blues
06 - Take a Giant Step
07 - Last Train to Clarksville
08 - This Just Doesn't Seem to Be My Day
09 - Let's Dance On
10 - I'll Be True to You
11 - Sweet Young Thing
12 - Gonna Buy Me a Dog
Bonus Tracks
13 - I Can't Get Her Off My Mind (Early Version)
14 - I Don't Think You Know Me (Alternate Version)
15 - (Theme from) The Monkees (Early Version)

More of The Monkees (1967)
01 - She
02 - When Love Comes Knockin' (At Your Door)
03 - Mary, Mary
04 - Hold On Girl
05 - Your Auntie Grizelda
06 - (I'm Not Your) Steppin' Stone
07 - Look Out (Here Comes Tomorrow)
08 - The Kind of Girl I Could Love
09 - The Day We Fall in Love
10 - Sometime in the Morning
11 - Laugh
12 - I'm a Believer
Bonus Tracks
13 - Don't Listen to Linda (Unissued Version)
14 - I'll Spend My Life With You (Alternate Version)
15 - I Don't Think You Know Me (Unissued Mix)
16 - Look Out (Here Comes Tomorrow) (Long Mix)
17 - I'm a Believer (Early Version)

Headquarters (1967)
01 - You Told Me
02 - I'll Spend My Life With You
03 - Forget That Girl
04 - Band 6
05 - You Just May Be the One
06 - Shades of Gray
07 - I Can't Get Her Off Of My Mind
08 - For Pete's Sake
09 - Mr. Webster
10 - Sunny Girlfriend
11 - Zilch
12 - No Time
13 - Early Morning Blues and Greens
14 - Randy Scouse Git
Bonus Tracks
15 - All of Your Toys (Alternate Mix)
16 - The Girl I Knew Somewhere (Alternate Version)
17 - Peter Gunn's Gun
18 - Jericho (Traditional)
19 - Nine Times Blue (Demo Version)
20 - Pillow Time (Demo Version)

Pisces, Aquarius, Capricorn & Jones Ltd. (1967)
01 - Salesman
02 - She Hangs Out
03 - The Door Into Summer
04 - Love is Only Sleeping
05 - Cuddly Toy
06 - Words
07 - Hard to Believe
08 - What Am I Doing Hangin' 'Round?
09 - Peter Percival Patterson's Pet Pig Porky
10 - Pleasant Valley Sunday
11 - Daily Nightly
12 - Don't Call on Me
13 - Star Collector
Bonus Tracks
14 - Special Announcement
15 - Goin' Down (Alternate Mix)
16 - Salesman (Alternate Mix)
17 - The Door Into Summer (Alternate Mix)
18 - Love is Only Sleeping (Alternate Mix)
19 - Daily Nightly (Alternate Mix)
20 - Star Collector (Alternate Mix)

The Birds, The Bees & The Monkees (1968)
01 - Dream World
02 - Auntie’s Municipal Court
03 - We Were Made for Each Other
04 - Tapioca Tundra
05 - Daydream Believer
06 - Writing Wrongs
07 - I'll Be Back Up On My Feet
08 - The Poster
09 - P.O. Box 9847
10 - Magnolia Simms
11 - Valleri
12 - Zor and Zam
Bonus Tracks
13 - Alvin
14 - I’m Gonna Try
15 - P.O. Box 9847 (Alternate Mix)
16 - The Girl I Left Behind Me (Early Version)
17 - Lady’s Baby (Alternate Mix)

EAC LOG CD1
Exact Audio Copy V1.0 beta 2 from 29. April 2011

Отчёт EAC об извлечении, выполненном 21. октября 2011, 0:05

The Monkees / The Monkees (Expanded)

Дисковод: TSSTcorpCDDVDW SH-S223C Adapter: 3 ID: 0

Режим чтения : Достоверность
Использование точного потока : Да
Отключение кэша аудио : Да
Использование указателей C2 : Нет

Коррекция смещения при чтении : 697
Способность читать области Lead-in и Lead-out : Нет
Заполнение пропущенных сэмплов тишиной : Да
Удаление блоков с тишиной в начале и конце : Нет
При вычислениях CRC использовались нулевые сэмплы : Да
Интерфейс : Встроенный Win32-интерфейс для Win NT/2000

Выходной формат : Пользовательский кодировщик
Выбранный битрейт : 768 kBit/s
Качество : Высокий
Добавление ID3-тега : Нет
Утилита сжатия : C:\Program Files (x86)\Exact Audio Copy\FLAC\FLAC.EXE
Дополнительные параметры : -6 -V -T "ARTIST=%artist%" -T "TITLE=%title%" -T "ALBUM=%albumtitle%" -T "DATE=%year%" -T "TRACKNUMBER=%tracknr%" -T "GENRE=%genre%" -T "COMMENT=%comment%" -T "BAND=%albuminterpret%" -T "COMPOSER=%composer%" %haslyrics%--tag-from-


TOC извлечённого CD

Трек | Старт | Длительность | Начальный сектор | Конечный сектор
---------------------------------------------------------------------
1 | 0:00.00 | 2:22.00 | 0 | 10649
2 | 2:22.00 | 2:45.00 | 10650 | 23024
3 | 5:07.00 | 2:27.12 | 23025 | 34061
4 | 7:34.12 | 2:39.13 | 34062 | 45999
5 | 10:13.25 | 2:00.57 | 46000 | 55056
6 | 12:14.07 | 2:31.68 | 55057 | 66449
7 | 14:46.00 | 2:47.40 | 66450 | 79014
8 | 17:33.40 | 2:09.10 | 79015 | 88699
9 | 19:42.50 | 2:32.15 | 88700 | 100114
10 | 22:14.65 | 2:49.65 | 100115 | 112854
11 | 25:04.55 | 1:58.60 | 112855 | 121764
12 | 27:03.40 | 2:44.10 | 121765 | 134074
13 | 29:47.50 | 2:55.05 | 134075 | 147204
14 | 32:42.55 | 2:18.35 | 147205 | 157589
15 | 35:01.15 | 0:52.05 | 157590 | 161494


Характеристики диапазона извлечения и сообщения об ошибках

Выбранный диапазон

Имя файла C:\Music\The Monkees - The Monkees (Expanded).wav

Пиковый уровень 100.0 %
Скорость извлечения 3.0 X
Качество диапазона 100.0 %
CRC теста BBC7C98C
CRC копии BBC7C98C
Копирование... OK

Ошибок не произошло


AccurateRip: сводка

Трек 1 : извлечено точно (доверие 3) [838E9D06] (AR v2)
Трек 2 : извлечено точно (доверие 3) [C26C04FF] (AR v2)
Трек 3 : извлечено точно (доверие 3) [C7E3F261] (AR v2)
Трек 4 : извлечено точно (доверие 3) [A40D7A96] (AR v2)
Трек 5 : извлечено точно (доверие 3) [B0EF8C90] (AR v2)
Трек 6 : извлечено точно (доверие 3) [8BC63286] (AR v2)
Трек 7 : извлечено точно (доверие 3) [CC6910F1] (AR v2)
Трек 8 : извлечено точно (доверие 3) [75AD6A32] (AR v2)
Трек 9 : извлечено точно (доверие 3) [2015278F] (AR v2)
Трек 10 : извлечено точно (доверие 3) [BE55B39B] (AR v2)
Трек 11 : извлечено точно (доверие 3) [C2BA77A3] (AR v2)
Трек 12 : извлечено точно (доверие 3) [49A46FF4] (AR v2)
Трек 13 : извлечено точно (доверие 3) [1A8F61AD] (AR v2)
Трек 14 : извлечено точно (доверие 3) [E5CF4514] (AR v2)
Трек 15 : извлечено точно (доверие 3) [B3417C8F] (AR v2)

Все треки извлечены точно

Конец отчёта

==== Контрольная сумма отчёта 0F0387332FA1C6280CF7FCF6F39A743ABEF705298FC81FE4DE286B961BCA5057 ====

EAC LOG CD2
Exact Audio Copy V1.0 beta 2 from 29. April 2011

Отчёт EAC об извлечении, выполненном 21. октября 2011, 11:05

The Monkees / More Of The Monkees

Дисковод: TSSTcorpCDDVDW SH-S223C Adapter: 3 ID: 0

Режим чтения : Достоверность
Использование точного потока : Да
Отключение кэша аудио : Да
Использование указателей C2 : Нет

Коррекция смещения при чтении : 697
Способность читать области Lead-in и Lead-out : Нет
Заполнение пропущенных сэмплов тишиной : Да
Удаление блоков с тишиной в начале и конце : Нет
При вычислениях CRC использовались нулевые сэмплы : Да
Интерфейс : Встроенный Win32-интерфейс для Win NT/2000

Выходной формат : Пользовательский кодировщик
Выбранный битрейт : 768 kBit/s
Качество : Высокий
Добавление ID3-тега : Нет
Утилита сжатия : C:\Program Files (x86)\Exact Audio Copy\FLAC\FLAC.EXE
Дополнительные параметры : -6 -V -T "ARTIST=%artist%" -T "TITLE=%title%" -T "ALBUM=%albumtitle%" -T "DATE=%year%" -T "TRACKNUMBER=%tracknr%" -T "GENRE=%genre%" -T "COMMENT=%comment%" -T "BAND=%albuminterpret%" -T "COMPOSER=%composer%" %haslyrics%--tag-from-


TOC извлечённого CD

Трек | Старт | Длительность | Начальный сектор | Конечный сектор
---------------------------------------------------------------------
1 | 0:00.00 | 2:41.20 | 0 | 12094
2 | 2:41.20 | 1:49.20 | 12095 | 20289
3 | 4:30.40 | 2:16.70 | 20290 | 30559
4 | 6:47.35 | 2:29.22 | 30560 | 41756
5 | 9:16.57 | 2:30.53 | 41757 | 53059
6 | 11:47.35 | 2:25.15 | 53060 | 63949
7 | 14:12.50 | 2:16.25 | 63950 | 74174
8 | 16:29.00 | 1:53.05 | 74175 | 82654
9 | 18:22.05 | 2:26.45 | 82655 | 93649
10 | 20:48.50 | 2:30.25 | 93650 | 104924
11 | 23:19.00 | 2:30.37 | 104925 | 116211
12 | 25:49.37 | 2:50.25 | 116212 | 128986
13 | 28:39.62 | 2:28.63 | 128987 | 140149
14 | 31:08.50 | 2:30.12 | 140150 | 151411
15 | 33:38.62 | 2:19.38 | 151412 | 161874
16 | 35:58.25 | 2:52.70 | 161875 | 174844
17 | 38:51.20 | 2:52.67 | 174845 | 187811


Характеристики диапазона извлечения и сообщения об ошибках

Выбранный диапазон

Имя файла C:\Music\The Monkees - More Of The Monkees.wav

Пиковый уровень 100.0 %
Скорость извлечения 3.1 X
Качество диапазона 100.0 %
CRC теста 1A04F6B8
CRC копии 1A04F6B8
Копирование... OK

Ошибок не произошло


AccurateRip: сводка

Трек 1 : извлечено точно (доверие 2) [DA9DC967] (AR v2)
Трек 2 : извлечено точно (доверие 2) [A61FBEE9] (AR v2)
Трек 3 : извлечено точно (доверие 2) [1CF35087] (AR v2)
Трек 4 : извлечено точно (доверие 2) [FDFAC47F] (AR v2)
Трек 5 : извлечено точно (доверие 2) [588A32EC] (AR v2)
Трек 6 : извлечено точно (доверие 2) [55213C4B] (AR v2)
Трек 7 : извлечено точно (доверие 2) [E2D117E1] (AR v2)
Трек 8 : извлечено точно (доверие 2) [C3BFA2E7] (AR v2)
Трек 9 : извлечено точно (доверие 2) [A28BFE0A] (AR v2)
Трек 10 : извлечено точно (доверие 2) [0DB81744] (AR v2)
Трек 11 : извлечено точно (доверие 2) [9E42DE4E] (AR v2)
Трек 12 : извлечено точно (доверие 2) [D831041D] (AR v2)
Трек 13 : извлечено точно (доверие 2) [09F1C6F4] (AR v2)
Трек 14 : извлечено точно (доверие 2) [39A0A8BE] (AR v2)
Трек 15 : извлечено точно (доверие 2) [0B39C662] (AR v2)
Трек 16 : извлечено точно (доверие 2) [8DFB6D32] (AR v2)
Трек 17 : извлечено точно (доверие 2) [A5792E5A] (AR v2)

Все треки извлечены точно

Конец отчёта

==== Контрольная сумма отчёта B24E2E893D64FA517E0E80D0ECF988481328A0E7B7797E0C4B26B84A6E20E2A4 ====

EAC LOG CD3
Exact Audio Copy V1.0 beta 2 from 29. April 2011

Отчёт EAC об извлечении, выполненном 21. октября 2011, 12:53

The Monkees / Headquarters (Rhino Remaster)

Дисковод: TSSTcorpCDDVDW SH-S223C Adapter: 3 ID: 0

Режим чтения : Достоверность
Использование точного потока : Да
Отключение кэша аудио : Да
Использование указателей C2 : Нет

Коррекция смещения при чтении : 697
Способность читать области Lead-in и Lead-out : Нет
Заполнение пропущенных сэмплов тишиной : Да
Удаление блоков с тишиной в начале и конце : Нет
При вычислениях CRC использовались нулевые сэмплы : Да
Интерфейс : Встроенный Win32-интерфейс для Win NT/2000

Выходной формат : Пользовательский кодировщик
Выбранный битрейт : 768 kBit/s
Качество : Высокий
Добавление ID3-тега : Нет
Утилита сжатия : C:\Program Files (x86)\Exact Audio Copy\FLAC\FLAC.EXE
Дополнительные параметры : -6 -V -T "ARTIST=%artist%" -T "TITLE=%title%" -T "ALBUM=%albumtitle%" -T "DATE=%year%" -T "TRACKNUMBER=%tracknr%" -T "GENRE=%genre%" -T "COMMENT=%comment%" -T "BAND=%albuminterpret%" -T "COMPOSER=%composer%" %haslyrics%--tag-from-


TOC извлечённого CD

Трек | Старт | Длительность | Начальный сектор | Конечный сектор
---------------------------------------------------------------------
1 | 0:00.00 | 2:25.22 | 0 | 10896
2 | 2:25.22 | 2:26.10 | 10897 | 21856
3 | 4:51.32 | 2:25.60 | 21857 | 32791
4 | 7:17.17 | 0:41.30 | 32792 | 35896
5 | 7:58.47 | 2:03.68 | 35897 | 45189
6 | 10:02.40 | 3:22.65 | 45190 | 60404
7 | 13:25.30 | 2:27.20 | 60405 | 71449
8 | 15:52.50 | 2:11.20 | 71450 | 81294
9 | 18:03.70 | 2:04.72 | 81295 | 90666
10 | 20:08.67 | 2:33.43 | 90667 | 102184
11 | 22:42.35 | 1:06.32 | 102185 | 107166
12 | 23:48.67 | 2:08.63 | 107167 | 116829
13 | 25:57.55 | 2:35.22 | 116830 | 128476
14 | 28:33.02 | 2:40.03 | 128477 | 140479
15 | 31:13.05 | 3:02.30 | 140480 | 154159
16 | 34:15.35 | 2:38.60 | 154160 | 166069
17 | 36:54.20 | 3:38.00 | 166070 | 182419
18 | 40:32.20 | 2:02.65 | 182420 | 191634
19 | 42:35.10 | 2:07.60 | 191635 | 201219
20 | 44:42.70 | 4:00.45 | 201220 | 219264


Характеристики диапазона извлечения и сообщения об ошибках

Выбранный диапазон

Имя файла C:\Music\The Monkees - Headquarters (Rhino Remaster).wav

Пиковый уровень 100.0 %
Скорость извлечения 2.4 X
Качество диапазона 100.0 %
CRC теста 6C9EDA97
CRC копии 6C9EDA97
Копирование... OK

Ошибок не произошло


AccurateRip: сводка

Трек 1 : извлечено точно (доверие 2) [99040402] (AR v2)
Трек 2 : извлечено точно (доверие 2) [DD22AFC7] (AR v2)
Трек 3 : извлечено точно (доверие 2) [328873EC] (AR v2)
Трек 4 : извлечено точно (доверие 2) [B1614351] (AR v2)
Трек 5 : извлечено точно (доверие 2) [728B766C] (AR v2)
Трек 6 : извлечено точно (доверие 2) [1E4AC522] (AR v2)
Трек 7 : извлечено точно (доверие 2) [01964DF7] (AR v2)
Трек 8 : извлечено точно (доверие 2) [350F20E1] (AR v2)
Трек 9 : извлечено точно (доверие 2) [5011CFB3] (AR v2)
Трек 10 : извлечено точно (доверие 2) [D28A1F7A] (AR v2)
Трек 11 : извлечено точно (доверие 2) [3D2D2CAF] (AR v2)
Трек 12 : извлечено точно (доверие 2) [1DE2AAAE] (AR v2)
Трек 13 : извлечено точно (доверие 2) [4A085458] (AR v2)
Трек 14 : извлечено точно (доверие 2) [56273811] (AR v2)
Трек 15 : извлечено точно (доверие 2) [800A17C0] (AR v2)
Трек 16 : извлечено точно (доверие 2) [F2EB2DEB] (AR v2)
Трек 17 : извлечено точно (доверие 2) [20217D49] (AR v2)
Трек 18 : извлечено точно (доверие 2) [A7D2BC56] (AR v2)
Трек 19 : извлечено точно (доверие 2) [18276764] (AR v2)
Трек 20 : извлечено точно (доверие 2) [967A3519] (AR v2)

Все треки извлечены точно

Конец отчёта

==== Контрольная сумма отчёта 46B0F6F3AF1FFC93D549F9E32D69A8344DF46F8629EBB0714239BD56555E00D7 ====

EAC LOG CD4
Exact Audio Copy V1.0 beta 2 from 29. April 2011

Отчёт EAC об извлечении, выполненном 21. октября 2011, 13:55

The Monkees / Pisces, Aquarius, Capricorn & Jones Ltd.

Дисковод: TSSTcorpCDDVDW SH-S223C Adapter: 3 ID: 0

Режим чтения : Достоверность
Использование точного потока : Да
Отключение кэша аудио : Да
Использование указателей C2 : Нет

Коррекция смещения при чтении : 697
Способность читать области Lead-in и Lead-out : Нет
Заполнение пропущенных сэмплов тишиной : Да
Удаление блоков с тишиной в начале и конце : Нет
При вычислениях CRC использовались нулевые сэмплы : Да
Интерфейс : Встроенный Win32-интерфейс для Win NT/2000

Выходной формат : Пользовательский кодировщик
Выбранный битрейт : 768 kBit/s
Качество : Высокий
Добавление ID3-тега : Нет
Утилита сжатия : C:\Program Files (x86)\Exact Audio Copy\FLAC\FLAC.EXE
Дополнительные параметры : -6 -V -T "ARTIST=%artist%" -T "TITLE=%title%" -T "ALBUM=%albumtitle%" -T "DATE=%year%" -T "TRACKNUMBER=%tracknr%" -T "GENRE=%genre%" -T "COMMENT=%comment%" -T "BAND=%albuminterpret%" -T "COMPOSER=%composer%" %haslyrics%--tag-from-


TOC извлечённого CD

Трек | Старт | Длительность | Начальный сектор | Конечный сектор
---------------------------------------------------------------------
1 | 0:00.00 | 2:38.20 | 0 | 11869
2 | 2:38.20 | 2:57.55 | 11870 | 25199
3 | 5:36.00 | 2:49.00 | 25200 | 37874
4 | 8:25.00 | 2:31.25 | 37875 | 49224
5 | 10:56.25 | 2:38.57 | 49225 | 61131
6 | 13:35.07 | 2:51.68 | 61132 | 74024
7 | 16:27.00 | 2:37.25 | 74025 | 85824
8 | 19:04.25 | 3:09.15 | 85825 | 100014
9 | 22:13.40 | 0:27.37 | 100015 | 102076
10 | 22:41.02 | 3:15.08 | 102077 | 116709
11 | 25:56.10 | 2:33.20 | 116710 | 128204
12 | 28:29.30 | 2:51.60 | 128205 | 141089
13 | 31:21.15 | 4:28.00 | 141090 | 161189
14 | 35:49.15 | 0:36.27 | 161190 | 163916
15 | 36:25.42 | 4:46.33 | 163917 | 185399
16 | 41:12.00 | 2:37.00 | 185400 | 197174
17 | 43:49.00 | 2:52.50 | 197175 | 210124
18 | 46:41.50 | 2:32.05 | 210125 | 221529
19 | 49:13.55 | 2:31.50 | 221530 | 232904
20 | 51:45.30 | 4:52.15 | 232905 | 254819


Характеристики диапазона извлечения и сообщения об ошибках

Выбранный диапазон

Имя файла C:\Music\The Monkees - Pisces, Aquarius, Capricorn & Jones Ltd..wav

Пиковый уровень 100.0 %
Скорость извлечения 3.4 X
Качество диапазона 100.0 %
CRC теста F4537D59
CRC копии F4537D59
Копирование... OK

Ошибок не произошло


AccurateRip: сводка

Трек 1 : извлечено точно (доверие 3) [B7BF8768] (AR v2)
Трек 2 : извлечено точно (доверие 3) [2BD68C21] (AR v2)
Трек 3 : извлечено точно (доверие 3) [6E7419AD] (AR v2)
Трек 4 : извлечено точно (доверие 3) [FE7E715A] (AR v2)
Трек 5 : извлечено точно (доверие 3) [C17D226B] (AR v2)
Трек 6 : извлечено точно (доверие 3) [CC9B1DD0] (AR v2)
Трек 7 : извлечено точно (доверие 3) [4CD4D625] (AR v2)
Трек 8 : извлечено точно (доверие 3) [32AE94FD] (AR v2)
Трек 9 : извлечено точно (доверие 3) [1A0AD785] (AR v2)
Трек 10 : извлечено точно (доверие 3) [F93349AD] (AR v2)
Трек 11 : извлечено точно (доверие 3) [3ACC4858] (AR v2)
Трек 12 : извлечено точно (доверие 3) [F361F66E] (AR v2)
Трек 13 : извлечено точно (доверие 3) [D11425F0] (AR v2)
Трек 14 : извлечено точно (доверие 3) [3B19288E] (AR v2)
Трек 15 : извлечено точно (доверие 3) [F625AC42] (AR v2)
Трек 16 : извлечено точно (доверие 3) [C245D7A0] (AR v2)
Трек 17 : извлечено точно (доверие 3) [D6592750] (AR v2)
Трек 18 : извлечено точно (доверие 3) [48A4D132] (AR v2)
Трек 19 : извлечено точно (доверие 3) [192B17E6] (AR v2)
Трек 20 : извлечено точно (доверие 3) [9144D69D] (AR v2)

Все треки извлечены точно

Конец отчёта

==== Контрольная сумма отчёта FEAE9E2BCB756803A93D71B8971C67078873850B4882F59E0E84B1A9A70B4ABC ====

EAC LOG CD5
Exact Audio Copy V1.0 beta 2 from 29. April 2011

Отчёт EAC об извлечении, выполненном 21. октября 2011, 22:53

The Monkees / The Birds, The Bees & The Monkees

Дисковод: TSSTcorpCDDVDW SH-S223C Adapter: 3 ID: 0

Режим чтения : Достоверность
Использование точного потока : Да
Отключение кэша аудио : Да
Использование указателей C2 : Нет

Коррекция смещения при чтении : 697
Способность читать области Lead-in и Lead-out : Нет
Заполнение пропущенных сэмплов тишиной : Да
Удаление блоков с тишиной в начале и конце : Нет
При вычислениях CRC использовались нулевые сэмплы : Да
Интерфейс : Встроенный Win32-интерфейс для Win NT/2000

Выходной формат : Пользовательский кодировщик
Выбранный битрейт : 768 kBit/s
Качество : Высокий
Добавление ID3-тега : Нет
Утилита сжатия : C:\Program Files (x86)\Exact Audio Copy\FLAC\FLAC.EXE
Дополнительные параметры : -6 -V -T "ARTIST=%artist%" -T "TITLE=%title%" -T "ALBUM=%albumtitle%" -T "DATE=%year%" -T "TRACKNUMBER=%tracknr%" -T "GENRE=%genre%" -T "COMMENT=%comment%" -T "BAND=%albuminterpret%" -T "COMPOSER=%composer%" %haslyrics%--tag-from-


TOC извлечённого CD

Трек | Старт | Длительность | Начальный сектор | Конечный сектор
---------------------------------------------------------------------
1 | 0:00.31 | 3:21.10 | 31 | 15115
2 | 3:21.41 | 4:05.03 | 15116 | 33493
3 | 7:26.44 | 2:25.30 | 33494 | 44398
4 | 9:51.74 | 3:07.72 | 44399 | 58495
5 | 12:59.71 | 3:00.23 | 58496 | 72018
6 | 16:00.19 | 5:08.12 | 72019 | 95130
7 | 21:08.31 | 2:26.70 | 95131 | 106150
8 | 23:35.26 | 2:21.53 | 106151 | 116778
9 | 25:57.04 | 3:16.55 | 116779 | 131533
10 | 29:13.59 | 3:48.50 | 131534 | 148683
11 | 33:02.34 | 2:15.55 | 148684 | 158863
12 | 35:18.14 | 2:10.22 | 158864 | 168635
13 | 37:28.36 | 0:27.20 | 168636 | 170680
14 | 37:55.56 | 2:44.10 | 170681 | 182990
15 | 40:39.66 | 3:15.60 | 182991 | 197675
16 | 43:55.51 | 2:40.33 | 197676 | 209708
17 | 46:36.09 | 2:29.70 | 209709 | 220953


Характеристики диапазона извлечения и сообщения об ошибках

Выбранный диапазон

Имя файла C:\Music\The Monkees - The Birds, The Bees & The Monkees.wav

Пиковый уровень 100.0 %
Скорость извлечения 1.7 X
Качество диапазона 99.9 %
CRC теста 265E595A
CRC копии 265E595A
Копирование... OK

Ошибок не произошло


AccurateRip: сводка

Трек 1 : извлечено точно (доверие 3) [946303AF] (AR v2)
Трек 2 : извлечено точно (доверие 3) [19482931] (AR v2)
Трек 3 : извлечено точно (доверие 3) [405A6DB0] (AR v2)
Трек 4 : извлечено точно (доверие 3) [CD08F0CC] (AR v2)
Трек 5 : извлечено точно (доверие 3) [0F4C66BF] (AR v2)
Трек 6 : извлечено точно (доверие 3) [8731B793] (AR v2)
Трек 7 : извлечено точно (доверие 3) [A21F693A] (AR v2)
Трек 8 : извлечено точно (доверие 3) [895F1479] (AR v2)
Трек 9 : извлечено точно (доверие 3) [B63C4CD4] (AR v2)
Трек 10 : извлечено точно (доверие 3) [77405D60] (AR v2)
Трек 11 : извлечено точно (доверие 3) [503110CC] (AR v2)
Трек 12 : извлечено точно (доверие 3) [B00A0407] (AR v2)
Трек 13 : извлечено точно (доверие 3) [073C786D] (AR v2)
Трек 14 : извлечено точно (доверие 3) [ABFF12BB] (AR v2)
Трек 15 : извлечено точно (доверие 3) [19AE700F] (AR v2)
Трек 16 : извлечено точно (доверие 3) [C417A8F0] (AR v2)
Трек 17 : извлечено точно (доверие 3) [B54DECD0] (AR v2)

Все треки извлечены точно

Конец отчёта

==== Контрольная сумма отчёта B73B9EDFD2187B298A2D4F2DECBFBD542680A6F41C667108E7B6DBD584503232 ====

Note that the artwork is included in the music archives.
All files are fully tagged.
5% recovery record
Files beginning with F- = Flac
Files beginning with M- = MP3
Thanks a lot to the original ripper!!
-FP-K2S-FB-

Password = avaxhome

ADVERTISING » Free Fast Download! « ADVERTISING


Posted By: Dualtrack Date: 19 Dec 2011 07:19:01
145 GB? Seems a little large :)
Groovy share, firepower!
Posted By: firepower Date: 19 Dec 2011 07:55:02
Decimal points are scarce so I skipped one. lol Thanks for pointing that out. I'm ripping another Christmas CD that I hope you will find interesting.... Christmas Past (1998 Westside). It has quite a few old and rare tunes. I bought it for the hard to find Toni Wine track "My Boyfriend's Coming Home For Christmas" from 1963. Take care my friend!
Posted By: Dualtrack Date: 19 Dec 2011 09:36:30
Toni Wine, eh? She's the Archies' Betty & Veronica wrapped up in one!
I wish I knew more about her and I don't think I've ever heard her solo...
You take care too, man!
Posted By: musician3 Date: 19 Dec 2011 16:27:14
Great Thank You
Posted By: 30megup Date: 19 Dec 2011 19:17:55
Great post. Thanks a lot for the tunes!
Posted By: Me4Avax Date: 25 Dec 2011 22:14:14
Thanks a lot. Enjoyed lisening to old memories!
Posted By: firepower Date: 26 Dec 2011 04:53:48
You are welcome! Thanks a lot to the original ripper! He is the MAN!!
Posted By: GRMarj Date: 08 Jul 2012 06:59:43
I have all of these on CD, but very nice share my friend!
Posted By: The_Wolf Date: 10 Jul 2012 23:49:22
THANK YOU firepower for sharing these !
Posted By: firepower Date: 11 Jul 2012 00:49:11
Wolf, you are welcome for sure!

GRMarj, it's a nice set but I can't imagine you have anything that compares to your Lobo cds! Yee haw!! Those are all very rare indeed. And thanks again for all of those! :)
Posted By: jorgekishimoto Date: 15 Jul 2012 07:44:12
Jorge Kishimoto Curter (Cusco - Peru)

Hello... Thank You Very Much... Saludos... Muchas Gracias, Muy Buen Aporte y Descargando :-)
Posted By: jlondon75 Date: 28 Dec 2012 16:14:01
Any chance of a re-up of FilePost links?
Posted By: klovius Date: 15 Nov 2013 17:27:12
Well, it's been quite a while since jlondon75's request but what the heck. I'd love to see a re-up of this to a free hoster as well.
Posted By: Chi-Town Date: 10 Aug 2014 22:39:34
Excellent post firepower. Thank you very much.
Posted By: firepower Date: 12 Aug 2014 13:54:09
You are welcome!
Posted By: SwissCheese Date: 31 Aug 2014 12:01:23
Oh, WOW, this is such an awesome overdose of nostalgia. Some of these songs I haven't heard since 1967-68, because their fame was short-lived, and they seemed to fade into obscurity very rapidly. But during their hey day, they were all over the radio and TV. A lot of their songs are derivative, and yet very representative of the kind of music that was being made at that time. This collection has all of their greatest hits, plus you can also hear the crazy, wacky, tongue-in-cheek humor that they displayed in their film and TV appearances.

Thank you for this very special post!