Loading...

Hardware - Third Eye Open (Buddy Miles, Bootsy Collins, Bill Laswell, Stevie Salas) (1992)

Posted By : KGmB | Date : 11 Jul 2009 05:20:01 | Comments : 3 |
|



Hardware - Third Eye Open (Buddy Miles, Bootsy Collins, Bill Laswell, Stevie Salas) (1992)
EAC Rip | FLAC, Tracks + CUE, LOG | 352 MB | MP3 CBR 320 Kbps | 125 MB | Scans
Blues-Rock, Funk-Rock | Label: RYCO | Catalog Number: RCD 10304 | RAR 3% Rec. | RS.com, DF.com

Third Eye Open is a 1992 album release by the Funk/Rock band Hardware. Hardware consists of lead guitarist Steve Salas, P-Funk bassist Bootsy Collins, and drummer Buddy Miles, formerly of the Band of Gypsys. The album was produced by Bill Laswell and co-produced by Steve Salas. The album was the first to be released as part of Laswell's Black Arc Series, which includes "Lord of the Harvest" by Zillatron, "Out Of The Dark by O.G. Funk, and "Under The 6" by Slave Master.
The group was originally known as Third Eye, and that's the way the 1993 Japanese CD reads, but before they released the CD in the US, it was discovered that another group had that name and was ready to sue. This was one of the first Black Arc releases, produced by Bill Laswell. It revives the 'supergroup concept' of a hardrocking band based around drums, guitar and bass. The main problem with the whole thing for me is that I don't much care for Stevie Salas. His guitar playing is too bombastic, lacking subtlety and taste. On the other hand, it's great to hear Bootsy doing rock material, a side that was never properly explored when he joined Funkadelic. Because Salas is essentially a one-trick pony, all of the songs start to sound alike, with only some Bootsy variations keeping it afloat. The few rhythm-dominated songs are the best here, as there is simply too much emphasis on guitar otherwise. With Bootsy and Buddy Miles, there's no way that the album should have been this unfunky.


Tracklist:

01. Got A Feeling (Steve Salas, Buddy Miles) 6:31
02. Waiting on You (Buddy Miles) 6:10
03. What's Goin' Down (Steve Salas) 5:06
04. Love Obsession (When The Eagle Flies) (Buddy Miles) 4:31
05. Hard Look (Steve Salas, Buddy Miles, Bootsy Collins) 6:06
06. Shake It (Steve Salas, Dave Friendly, Bootsy Collins) 4:26
07. The Walls Came Down (Steve Salas) 4:14
08. 500 Years (Steve Salas) 5:42
09. Tell Me (Steve Salas) 5:22
10. Leakin' (Bootsy Collins) 4:20

Personnel:

Stevie Salas: guitars, vocals
Bootsy Collins: Space bass, vocals
Buddy Miles: drums, fuzz bass, vocals
Gary Mudbone Cooper: background vocals
Bernard Fowler: background vocals
George Clinton: background vocals
David Friendly, Vince McLean, Matt Stein: digital bollocks.

Produced by Bill Laswell, co-produced by Stevie Salas
Recorded at Greenpoint Studio, Brooklyn, New York

EAC LOG
EAC extraction logfile from 21. May 2007, 0:05 for CD
Hardware / Third Eye Open

Used drive : TOSHIBA DVD-ROM SD-M1612 Adapter: 1 ID: 0
Read mode : Secure with NO C2, accurate stream, disable cache
Read offset correction : -472
Overread into Lead-In and Lead-Out : No

Used output format : C:\Program Files\Exact Audio Copy\flac.exe (User Defined Encoder)
224 kBit/s
Additional command line options : -8 -V -T "artist=%a" -T "title=%t" -T "album=%g" -T "date=%y" -T "tracknumber=%n" -T "genre=%m" %s

Other options :
Fill up missing offset samples with silence : Yes
Delete leading and trailing silent blocks : No
Native Win32 interface for Win NT & 2000


Track 1
Filename C:\_SAVE\_laswell\Hardware - Third Eye Open\01 - Got A Feelin'.wav

Pre-gap length 0:00:02.00

Peak level 99.9 %
Track quality 100.0 %
Test CRC 8E0B9C6C
Copy CRC 8E0B9C6C
Copy OK

Track 2
Filename C:\_SAVE\_laswell\Hardware - Third Eye Open\02 - Waiting On You.wav

Peak level 100.0 %
Track quality 100.0 %
Test CRC 3D7C12E0
Copy CRC 3D7C12E0
Copy OK

Track 3
Filename C:\_SAVE\_laswell\Hardware - Third Eye Open\03 - What's Goin' Down.wav

Peak level 100.0 %
Track quality 99.9 %
Test CRC 198ED8C0
Copy CRC 198ED8C0
Copy OK

Track 4
Filename C:\_SAVE\_laswell\Hardware - Third Eye Open\04 - Love Obsession (When The Eagle Flies).wav

Peak level 99.6 %
Track quality 100.0 %
Test CRC BDE14CC2
Copy CRC BDE14CC2
Copy OK

Track 5
Filename C:\_SAVE\_laswell\Hardware - Third Eye Open\05 - Hard Look.wav

Peak level 100.0 %
Track quality 100.0 %
Test CRC 03F035BD
Copy CRC 03F035BD
Copy OK

Track 6
Filename C:\_SAVE\_laswell\Hardware - Third Eye Open\06 - Shake It.wav

Peak level 100.0 %
Track quality 100.0 %
Test CRC 42951555
Copy CRC 42951555
Copy OK

Track 7
Filename C:\_SAVE\_laswell\Hardware - Third Eye Open\07 - The Walls Came Down.wav

Pre-gap length 0:00:00.66

Peak level 100.0 %
Track quality 100.0 %
Test CRC 7994A040
Copy CRC 7994A040
Copy OK

Track 8
Filename C:\_SAVE\_laswell\Hardware - Third Eye Open\08 - 500 Years.wav

Pre-gap length 0:00:00.01

Peak level 100.0 %
Track quality 100.0 %
Test CRC 50D540B3
Copy CRC 50D540B3
Copy OK

Track 9
Filename C:\_SAVE\_laswell\Hardware - Third Eye Open\09 - Tell Me.wav

Pre-gap length 0:00:00.31

Peak level 100.0 %
Track quality 100.0 %
Test CRC F56CC895
Copy CRC F56CC895
Copy OK

Track 10
Filename C:\_SAVE\_laswell\Hardware - Third Eye Open\10 - Leakin.wav

Pre-gap length 0:00:00.01

Peak level 100.0 %
Track quality 100.0 %
Test CRC 5ADFC9B7
Copy CRC 5ADFC9B7
Copy OK

No errors occured


End of status report


Download Rapidshare:

Lossless:
part1 | part2 | part3 | part4

Download Depositfiles:

Lossless:
part1 | part2 | part3 | part4

Lossy:
part1 | part2

Don't post mirrors, please

My Blog

ADVERTISING » Free Fast Download! « ADVERTISING


Posted By: KGmB Date: 11 Jul 2009 23:03:04
@rikki_nadir:
Report more exactly in than mistake - an unpacking of the archive part 2 or garbling the sound of the track 5?
@All:
Report if will be a mistakes in PM.
---
Thank
Posted By: KGmB Date: 12 Jul 2009 05:55:52
New part2: http://rapidshare.com/files/254899403/Hard-ThirEyOp.part2.rar
Posted By: Aldoux Date: 11 Sep 2009 03:58:20
I'm a Buddy Miles fan and never had heard about this. Thanks a lot my friend!!!