Loading...

Whitesnake - Slide It In (1984) (Original US Release)

Posted By : muddboogers | Date : 11 Nov 2011 03:32:43 | Comments : 2 |
|



Whitesnake - Slide It In (1984) (Original US Release)
EAC | FLAC IMG+CUE+LOG | Scans | RAR 3% Recovery | 322 MB
Hard Rock | 1984 Geffen Records #4018-2

Following up the splendid Saints & Sinners album was no easy task, but 1984's Slide It In turned out to be an even greater triumph for David Coverdale's Whitesnake. From the boisterous machismo of "Spit It Out" and "All or Nothing" to the resigned despair of "Gambler" and "Standing in the Shadow," and the embarrassingly silly title track, everything seems to click. For hit singles, look no further than the twin guitar attack of "Guilty of Love" and the sheer poetry and emotion of "Love Ain't No Stranger," one of the decade's greatest power ballads, bar none. Not to be outdone, "Slow an' Easy" is a masterpiece of sexual tension and the kind of power-blues which no one does as well as Whitesnake. On a quirky historical note, Coverdale fired most of the band soon after the album's release, replacing them with younger, prettier faces with which to better conquer America. For that purpose, Geffen Records even released a re-recorded version of Slide It In with flashy soloing from new guitarist John Sykes, sparking an ongoing debate as to which version is better. ~ Eduardo Rivadavia, allmusic.com


Tracklist:
1. Slide It In
2. Slow An' Easy
3. Love Ain't No Stranger
4. All Or Nothing
5. Gambler
6. Guilty Of Love
7. Hungry For Love
8. Give Me More Time
9. Spit It Out
10. Standing In The Shadow


EAC-LOG
Exact Audio Copy V1.0 beta 3 from 29. August 2011

EAC extraction logfile from 8. November 2011, 14:09

Whitesnake / Slide It In

Used drive : TDK CDRW4800B Adapter: 2 ID: 1

Read mode : Secure
Utilize accurate stream : Yes
Defeat audio cache : Yes
Make use of C2 pointers : No

Read offset correction : 6
Overread into Lead-In and Lead-Out : No
Fill up missing offset samples with silence : Yes
Delete leading and trailing silent blocks : No
Null samples used in CRC calculations : Yes
Used interface : Native Win32 interface for Win NT & 2000

Used output format : Internal WAV Routines
Sample format : 44.100 Hz; 16 Bit; Stereo


TOC of the extracted CD

Track | Start | Length | Start sector | End sector
---------------------------------------------------------
1 | 0:00.00 | 3:23.22 | 0 | 15246
2 | 3:23.22 | 6:13.03 | 15247 | 43224
3 | 9:36.25 | 4:21.50 | 43225 | 62849
4 | 13:58.00 | 3:45.10 | 62850 | 79734
5 | 17:43.10 | 4:02.35 | 79735 | 97919
6 | 21:45.45 | 3:27.50 | 97920 | 113494
7 | 25:13.20 | 3:31.05 | 113495 | 129324
8 | 28:44.25 | 3:46.30 | 129325 | 146304
9 | 32:30.55 | 4:28.35 | 146305 | 166439
10 | 36:59.15 | 3:42.47 | 166440 | 183136


Range status and errors

Selected range

Filename E:\[# AvaxHome #]\Whitesnake - Slide It In.wav

Peak level 83.6 %
Extraction speed 1.2 X
Range quality 100.0 %
Test CRC AC7FACD3
Copy CRC AC7FACD3
Copy OK

No errors occurred


AccurateRip summary

Track 1 accurately ripped (confidence 3) [4C5BE217] (AR v1)
Track 2 accurately ripped (confidence 3) [8ED462D6] (AR v1)
Track 3 accurately ripped (confidence 3) [0ED87E29] (AR v1)
Track 4 accurately ripped (confidence 3) [D62459FC] (AR v1)
Track 5 accurately ripped (confidence 3) [7DD248DF] (AR v1)
Track 6 accurately ripped (confidence 3) [0B876891] (AR v1)
Track 7 accurately ripped (confidence 3) [D3A57D76] (AR v1)
Track 8 accurately ripped (confidence 3) [CDD0BC1B] (AR v1)
Track 9 accurately ripped (confidence 3) [1AACDD96] (AR v1)
Track 10 accurately ripped (confidence 3) [AFE6763E] (AR v1)

All tracks accurately ripped

End of status report

==== Log checksum C1023E69EFEA4934CA7455184567326B44022D837C79053FCD6BF1D28613CBBB ====

Unfortunatley, all I have is the CD.
However, I have included two sets of scans I found on the web along with scans of my CD.

FileServe

FileSonic

Password: www.AvaxHome.ws


More Whitesnake:
Greatest Hits
ADVERTISING » Click here to download Ebooks/Magazines for free « ADVERTISING


Posted By: Jota10 Date: 11 Nov 2011 05:22:03
There's so much good in this album, Slide It In, Slow An 'Easy, Love Is not No Stranger ...
thank you
Fpolis, Brasil
Posted By: flac jacket Date: 16 Nov 2011 05:52:07
Thank you for this and all of your excellent posts!