Loading...

Whitesnake - The Originals (3 CDs Box Set - 1995) RE-UPPED

Posted By : Shar'EmAll | Date : 28 Jul 2012 18:38:00 | Comments : 6 |
|



Whitesnake - The Originals (1995)
EAC | FLAC-IMG+CUE+LOG > 990 MB | Full Scans | MP3 CBR 320 > 319 MB
Rock/Hard Rock/Blues Rock | 140:09 minutes | EMI Records # 835361-2

Box Set Contains Three Compact Discs of Original (Non Remastered) Whitesnake albums in miniature LP Sleeves!
Include albums: "Slide It In" , "1987" (Selftitled) , and "Slip Of The Tongue" - all the original U.K. versions.


Slide It In
Following up the splendid Saints & Sinners album was no easy task, but 1984's Slide It In turned out to be an even greater triumph for David Coverdale's Whitesnake. From the boisterous machismo of "Spit It Out" and "All or Nothing" to the resigned despair of "Gambler" and "Standing in the Shadow," and the embarrassingly silly title track, everything seems to click. For hit singles, look no further than the twin guitar attack of "Guilty of Love" and the sheer poetry and emotion of "Love Ain't No Stranger," one of the decade's greatest power ballads, bar none. Not to be outdone, "Slow an' Easy" is a masterpiece of sexual tension and the kind of power-blues which no one does as well as Whitesnake. On a quirky historical note, Coverdale fired most of the band soon after the album's release, replacing them with younger, prettier faces with which to better conquer America. For that purpose, Geffen Records even released a re-recorded version of Slide It In with flashy soloing from new guitarist John Sykes, sparking an ongoing debate as to which version is better.

1987
The European release of Whitesnake's commercial breakthrough is actually their eponymous American release retitled 1987. The differences are small, but they are enough to make it interesting. The first difference is the track order, which is very different. The album seems to flow a little better the way it is presented here, especially when utilizing "Still of the Night" as the opening track. This has always been one of their best songs, and by far one of the best Led Zeppelin rip-offs to ever be written. There are also two more songs than on the American release, making it that much more essential to fans. Of the two, "Looking for Love" is the standout; a nice slow build to a blustery chorus makes this a classic David Coverdale ballad. "You're Gonna Break My Heart Again" is the hard rocker, and though it isn't exactly the holy grail of hard rock, it is a decent song that fits nicely with the other material here. If the option is presented, this is the superior edition and should be purchased above the edited American version. Fans will need the two extra songs, while anyone looking to hear their best album should hunt this down for the superior track order.

Slip Of The Tongue
Any band would have been hard-pressed to follow the success of a multi-platinum album with another one of equal or higher quality both critically and commercially. Needless to say, that's exactly what David Coverdale and Whitesnake were faced with when it came time to record 1989's Slip of the Tongue, the follow-up to their 1987 smash self-titled LP. To complicate matters, Coverdale lost Irish guitarist Vivian Campbell during pre-recording sessions due to artistic differences, and his songwriting partner and lead guitarist, Adrian Vandenberg, injured himself to the degree that he couldn't play; he did some early work that made it on to the final album. Coverdale, faced with a quickly approaching deadline and pressure from management and the label finally recruited former Frank Zappa guitarist Steve Vai to fill the chair. Commercially, Slip of the Tongue was an unqualified success. The album ended up being Whitesnake's third platinum recording. Musically, however, the set is so drenched in '80s production -- huge compression, Midi keyboards, a thin bottom end, etc. -- it seems that little of the band's tough blues-based metallic persona remains. The album sounds dated, full of overblown sounds and effects that have little to do with the act's trademark heavy guitar-and-bass approach to hard rock and early Brit metal. Some of the songs have merit, even if their finished productions ruin them -- the tough "Now You're Gone" and "Judgment Day," are great examples, as is "The Deeper the Love," a classic Coverdale power ballad needlessly drenched in keys and synths. The fit between Vai and Whitesnake is also questionable; his busy approach is at odds with the meat and potatoes strut and pound of the band. Fans ate it up at the time, but Slip of the Tongue is, unfortunately, still an album very much of its time and the curious, as well as fans, may want to check out their earlier work before picking this up.

-- Reviews by Eduardo Rivadavia, Bradley Torreano, Thom Jurek, allmusic com


Tracklist:
Disc One - Slide It In (1984)

01. Gambler
02. Slide It In
03. Standing In The Shadow
04. Give Me More Time
05. Love Ain't No Stranger
06. Slow An' Easy
07. Spit It Out
08. All Or Nothing
09. Hungry For Love
10. Guilty Of Love

Personnel:
David Coverdale – lead vocals, percussion, piano
Micky Moody – guitars
Mel Galley – guitars, backing vocals
Colin Hodgkinson – bass
Jon Lord – keyboards
Cozy Powell – drums

Produced by Martin Birch.


Disc Two - 1987 (1987)
01. Still Of The Night
02. Bad Boys
03. Give Me All Your Love
04. Looking For Love
05. Crying In The Rain
06. Is This Love
07. Straight For The Heart
08. Don't Turn Away
09. Children Of The Night
10. Here I Go Again (Radio Mix '87)
11. You're Gonna Break My Heart Again

Personnel:
David Coverdale – lead vocals
John Sykes – guitars, backing vocals
Neil Murray – bass
Aynsley Dunbar – drums, percussion

Guests:
Don Airey – keyboards
Bill Cuomo – keyboards
Adrian Vandenberg – guitar solo on "Here I Go Again '87"
Dann Huff - guitar on "Here I Go Again '87 (Radio Mix)"
Denny Carmassi - drums on "Here I Go Again '87 (Radio Mix)"
Vivian Campbell - guitar solo on "Give Me All Your Love

Produced by Mike Stone & Keith Olsen.


Disc Three - Slip Of The Tongue (1989)
01. Slip Of The Tongue
02. Cheap An' Nasty
03. Fool For Your Loving
04. Now You're Gone
05. Kittens Got Claws
06. Wings Of The Storm
07. The Deeper The Love
08. Judgment Day
09. Slow Poke Music
10. Sailing Ships

Personnel:
David Coverdale – vocals
Steve Vai – Guitars
Adrian Vandenberg - Guitars (credited, but does not appear on album)
Rudy Sarzo – bass
Tommy Aldridge – drums

Guests:
Glenn Hughes - backing vocals
Tommy Funderburk - backing vocals
Richard Page - backing vocals on "Now You're Gone"
Don Airey - keyboards
David Rosenthal - keyboards

Produced by Mike Clink & Keith Olsen.

All recordings are non-remastered originals.
Box Set has been manufactured in 1995, in the U.K.
All thanks goes to the original ripper!

EAC LOGs
Exact Audio Copy V0.99 prebeta 5 from 4. May 2009

EAC extraction logfile from 21. July 2010, 2:45

Whitesnake / Slide It In (UK version)

Used drive : HL-DT-STDVD-RAM GH15L Adapter: 0 ID: 1

Read mode : Secure
Utilize accurate stream : Yes
Defeat audio cache : Yes
Make use of C2 pointers : No

Read offset correction : 667
Overread into Lead-In and Lead-Out : No
Fill up missing offset samples with silence : Yes
Delete leading and trailing silent blocks : No
Null samples used in CRC calculations : Yes
Used interface : Native Win32 interface for Win NT & 2000

Used output format : Internal WAV Routines
Sample format : 44.100 Hz; 16 Bit; Stereo


TOC of the extracted CD

Track | Start | Length | Start sector | End sector
---------------------------------------------------------
1 | 0:00.32 | 3:57.25 | 32 | 17831
2 | 3:57.57 | 3:20.68 | 17832 | 32899
3 | 7:18.50 | 3:32.60 | 32900 | 48859
4 | 10:51.35 | 3:41.07 | 48860 | 65441
5 | 14:32.42 | 4:13.43 | 65442 | 84459
6 | 18:46.10 | 6:09.70 | 84460 | 112204
7 | 24:56.05 | 4:11.72 | 112205 | 131101
8 | 29:08.02 | 3:34.28 | 131102 | 147179
9 | 32:42.30 | 3:57.40 | 147180 | 164994
10 | 36:39.70 | 3:18.40 | 164995 | 179884


Range status and errors

Selected range

Filename C:\Whitesnake - The Originals (3CD Box Set, 1995)\CD 1 - Slide It In (1984)\Whitesnake - Slide It In (UK version).wav

Peak level 100.0 %
Range quality 100.0 %
Test CRC 0F1C3E9A
Copy CRC 0F1C3E9A
Copy OK

No errors occurred


AccurateRip summary

Track 1 accurately ripped (confidence 27) [B65F2560]
Track 2 accurately ripped (confidence 27) [F51CA2D6]
Track 3 accurately ripped (confidence 27) [79141E46]
Track 4 accurately ripped (confidence 27) [B6F426A5]
Track 5 accurately ripped (confidence 27) [913C67C4]
Track 6 accurately ripped (confidence 27) [A49E5F8F]
Track 7 accurately ripped (confidence 27) [21A5CBD5]
Track 8 accurately ripped (confidence 26) [A1BECB93]
Track 9 accurately ripped (confidence 26) [3B81F907]
Track 10 accurately ripped (confidence 27) [82EFBF23]

All tracks accurately ripped

End of status report

****************************************

Exact Audio Copy V0.99 prebeta 5 from 4. May 2009

EAC extraction logfile from 21. July 2010, 3:19

Whitesnake / 1987 (UK version)

Used drive : HL-DT-STDVD-RAM GH15L Adapter: 0 ID: 1

Read mode : Secure
Utilize accurate stream : Yes
Defeat audio cache : Yes
Make use of C2 pointers : No

Read offset correction : 667
Overread into Lead-In and Lead-Out : No
Fill up missing offset samples with silence : Yes
Delete leading and trailing silent blocks : No
Null samples used in CRC calculations : Yes
Used interface : Native Win32 interface for Win NT & 2000

Used output format : Internal WAV Routines
Sample format : 44.100 Hz; 16 Bit; Stereo


TOC of the extracted CD

Track | Start | Length | Start sector | End sector
---------------------------------------------------------
1 | 0:00.33 | 6:36.60 | 33 | 29792
2 | 6:37.18 | 4:06.70 | 29793 | 48312
3 | 10:44.13 | 3:31.72 | 48313 | 64209
4 | 14:16.10 | 6:33.10 | 64210 | 93694
5 | 20:49.20 | 5:37.63 | 93695 | 119032
6 | 26:27.08 | 4:43.42 | 119033 | 140299
7 | 31:10.50 | 3:39.43 | 140300 | 156767
8 | 34:50.18 | 5:10.02 | 156768 | 180019
9 | 40:00.20 | 4:24.30 | 180020 | 199849
10 | 44:24.50 | 4:34.68 | 199850 | 220467
11 | 48:59.43 | 4:11.07 | 220468 | 239299


Range status and errors

Selected range

Filename C:\Whitesnake - The Originals (3CD Box Set, 1995)\CD 2 - 1987 (1987)\Whitesnake - 1987 (UK version).wav

Peak level 100.0 %
Range quality 100.0 %
Test CRC B13163FA
Copy CRC B13163FA
Copy OK

No errors occurred


AccurateRip summary

Track 1 accurately ripped (confidence 106) [9E2E2BFF]
Track 2 accurately ripped (confidence 103) [ADA31347]
Track 3 accurately ripped (confidence 105) [E738768B]
Track 4 accurately ripped (confidence 104) [8CDA69F0]
Track 5 accurately ripped (confidence 103) [22C1A0AA]
Track 6 accurately ripped (confidence 103) [BC42B225]
Track 7 accurately ripped (confidence 104) [46A00BF2]
Track 8 accurately ripped (confidence 103) [97A728B7]
Track 9 accurately ripped (confidence 104) [91BCD1AE]
Track 10 accurately ripped (confidence 102) [EADB5720]
Track 11 accurately ripped (confidence 100) [1F7A1ADE]

All tracks accurately ripped

End of status report

****************************************

Exact Audio Copy V0.99 prebeta 5 from 4. May 2009

EAC extraction logfile from 21. July 2010, 3:41

Whitesnake / Slip Of The Tongue

Used drive : HL-DT-STDVD-RAM GH15L Adapter: 0 ID: 1

Read mode : Secure
Utilize accurate stream : Yes
Defeat audio cache : Yes
Make use of C2 pointers : No

Read offset correction : 667
Overread into Lead-In and Lead-Out : No
Fill up missing offset samples with silence : Yes
Delete leading and trailing silent blocks : No
Null samples used in CRC calculations : Yes
Used interface : Native Win32 interface for Win NT & 2000

Used output format : Internal WAV Routines
Sample format : 44.100 Hz; 16 Bit; Stereo


TOC of the extracted CD

Track | Start | Length | Start sector | End sector
---------------------------------------------------------
1 | 0:00.33 | 5:21.37 | 33 | 24144
2 | 5:21.70 | 3:28.70 | 24145 | 39814
3 | 8:50.65 | 4:11.38 | 39815 | 58677
4 | 13:02.28 | 4:12.25 | 58678 | 77602
5 | 17:14.53 | 5:02.05 | 77603 | 100257
6 | 22:16.58 | 5:01.57 | 100258 | 122889
7 | 27:18.40 | 4:23.10 | 122890 | 142624
8 | 31:41.50 | 5:16.25 | 142625 | 166349
9 | 36:58.00 | 3:59.43 | 166350 | 184317
10 | 40:57.43 | 6:03.22 | 184318 | 211564


Range status and errors

Selected range

Filename C:\Whitesnake - The Originals (3CD Box Set, 1995)\CD 3 - Slip Of The Tongue (1989)\Whitesnake - Slip Of The Tongue.wav

Peak level 96.5 %
Range quality 99.9 %
Test CRC 689065BB
Copy CRC 689065BB
Copy OK

No errors occurred


AccurateRip summary

Track 1 accurately ripped (confidence 33) [55D9983C]
Track 2 accurately ripped (confidence 33) [3D5066C6]
Track 3 accurately ripped (confidence 33) [75EC7D73]
Track 4 accurately ripped (confidence 32) [4D813E87]
Track 5 accurately ripped (confidence 32) [4262CBCE]
Track 6 accurately ripped (confidence 32) [509B48FD]
Track 7 accurately ripped (confidence 32) [16EC7834]
Track 8 accurately ripped (confidence 33) [6B5C3E0D]
Track 9 accurately ripped (confidence 32) [B90E5ECE]
Track 10 accurately ripped (confidence 31) [8E4EB4FA]

All tracks accurately ripped

End of status report


Whitesnake - Slide It In

FLAC | Scans | MP3

Whitesnake - 1987
FLAC | Scans | MP3

Whitesnake - Slip Of The Tongue
FLAC | Scans | MP3

Recovery info has included.
ADVERTISING » Very Fast Download! « ADVERTISING


Posted By: wormwood Date: 22 Jul 2010 16:09:11
Thanks for non-remastered
Posted By: Scorpion40 Date: 24 Jul 2010 18:58:30
¡Gracias y un saludo!
Posted By: jhon1277 Date: 21 Aug 2010 02:17:01
tioeres un cuco saludos desde peru gracias
lo maximo
viejo
Posted By: spinner47 Date: 17 Mar 2011 01:45:35
Thank you very much..
Posted By: wlodas Date: 29 Jul 2012 10:17:40
bardzo dziękuję..:)
Posted By: Jagged Date: 01 Aug 2013 22:48:46
Many thanks for the set