Loading...

Molly Hatchet - Lightning Strikes Twice (1989)

Posted By : Rehabilly | Date : 02 Mar 2008 13:55:00 | Comments : 3 |
|



Molly Hatchet - Lightning Strikes Twice
WV+CUE+LOG or MP3 CBR 320 | 43:14 min | 303 or 100 MB
Genre: Southern Rock

Are you ready to Rock and Roll? Well Lighting Strikes Twice is the CD you are lookin for. This was Danny Joe Browns last album with Molly Hatchet and the whole band is Rockin! Some standout songs "There Goes The Neighborhood", "Heart Of My Soul", "No Room On The Crew", "Find Somebody New". Plus a great cover of "Hide Your Heart" by Kiss. 5 stars, a Must Have!

~ customer review on CD Universe.com

Tracklist:

01. Take Miss Lucy Home
02. There Goes The Neighborhood
03. No Room On The Crew
04. Find Somebody New
05. The Big Payback
06. I Can't Be Watching You
07. Goodbye To Love
08. Hide Your Heart
09. What's The Story, Old Glory
10. Heart Of My Soul

EAC logfile
Exact Audio Copy V0.99 prebeta 3 from 28. July 2007

EAC extraction logfile from 12. December 2007, 3:18

Molly Hatchet / Lightning Strikes Twice

Used drive : PLEXTOR CD-R PREMIUM Adapter: 5 ID: 3

Read mode : Secure
Utilize accurate stream : Yes
Defeat audio cache : Yes
Make use of C2 pointers : No

Read offset correction : 30
Overread into Lead-In and Lead-Out : Yes
Fill up missing offset samples with silence : Yes
Delete leading and trailing silent blocks : No
Null samples used in CRC calculations : Yes
Used interface : Installed external ASPI interface

Used output format : Internal WAV Routines
Sample format : 44.100 Hz; 16 Bit; Stereo


TOC of the extracted CD

Track | Start | Length | Start sector | End sector
---------------------------------------------------------
1 | 0:00.32 | 3:12.50 | 32 | 14481
2 | 3:13.07 | 3:42.53 | 14482 | 31184
3 | 6:55.60 | 3:27.10 | 31185 | 46719
4 | 10:22.70 | 3:12.32 | 46720 | 61151
5 | 13:35.27 | 4:33.63 | 61152 | 81689
6 | 18:09.15 | 6:01.02 | 81690 | 108766
7 | 24:10.17 | 5:30.18 | 108767 | 133534
8 | 29:40.35 | 4:38.57 | 133535 | 154441
9 | 34:19.17 | 3:21.20 | 154442 | 169536
10 | 37:40.37 | 5:33.43 | 169537 | 194554


Range status and errors

Selected range

Filename D:\Release\Molly Hatchet - Lightning Strikes Twice\Molly Hatchet - Lightning Strikes Twice.wav

Peak level 100.0 %
Range quality 99.9 %
Copy CRC C7BF200A
Copy OK

No errors occurred


AccurateRip summary

Track 1 accurately ripped (confidence 1) [3CF0DD5A]
Track 2 not present in database
Track 3 not present in database
Track 4 not present in database
Track 5 not present in database
Track 6 not present in database
Track 7 accurately ripped (confidence 1) [33365AFB]
Track 8 not present in database
Track 9 not present in database
Track 10 accurately ripped (confidence 1) [03660B16]

3 track(s) accurately ripped
7 track(s) not present in the AccurateRip database

Some tracks could not be verified as accurate

End of status report

Produced and Mixed by Pat Armstrong & Andy DeGanahl
Recorded & Mixed at Park Studios, Orlando, Florida

• Danny Joe Braun - lead vocals, harmonica
• Duane Roland - lead, rhythm & slide guitars, acoustic guitar, backing vocals
• Bobby Ingram - lead & rhythm guitars, acoustic guitars, background vocals
• Riff West - bass guitar, background vocals
• John Galvin - piano, Hammond B-3, synthesizers, backing vocals
• Bruce Crump - drums, percussion, background vocals

Original Release Date: 1989
Release Date: 2003 (1996)
Format: Original recording Reissued
Label: SPV Recordings


ADVERTISING » Very Fast Download! « ADVERTISING


Posted By: GianoBiFronte Date: 02 Mar 2008 14:58:50
Thank you! :)
Posted By: Spanky2 Date: 12 Mar 2008 03:21:16
Thanks a lot!
Posted By: jorgeluiz Date: 17 Apr 2009 01:03:31
thanks so much, really cool!!! :-)