Loading...

Piper - Piper (1976) [1990, Original Japan Press PCCY-10122]

Posted By : jclane | Date : 12 Jan 2013 07:01:12 | Comments : 5 |
|



Piper - Piper (1976)
EAC Rip | FLAC Image + Cue + Log | 265 MB | Complete Scans | 15 MB
MP3 CBR @320 kbps (LAME 3.99) | Joint Stereo | 90.2 MB
Pony Canyon Inc. Japan / A&M Records | PCCY-10122 | Hard Rock, AOR

Billy Squier wrote a great song when he was in the Sidewinders, a song that didn't make it to their Lenny Kaye-produced RCA album but is here in all its glory. "Telephone Relation" is an exquisite pop tune, overshadowed only by the even poppier "Who's Your Boyfriend," which should have been as big a hit as "The Stroke," "In the Dark," and "Everybody Wants You." The great thing about Piper is that Squier emerged with authority as a solid front man, guitarist, and singer/songwriter. The elements that make this disc so good are what is wrong with solo efforts by the Cars' Elliot Easton or Alice Cooper's Michael Bruce. Squier took his former singer Andy Paley's pretty-boy stance and re-evaluated the formula the Sidewinders were toying with. Piper rocks a bit harder than the Sidewinders and lighter than Squier's solo work. Pop suits Squier better than the all-out assault of hard rock his later work is known for. Piper and the excellent follow-up Can't Wait are two essential albums by this very talented artist.


Track Listing:

01. Out Of Control - 4:31
02. Whatcha Gonna Do - 4:10
03. The Road - 4:17
04. Sail Away - 6:19
05. Who's Your Boyfriend - 4:28
06. Telephone Relation - 2:41
07. The Last Time - 3:31
08. 42nd Street - 3:45
09. Can't Live With Ya, Can't Live Without Ya - 4:27

EAC Log

Exact Audio Copy V0.99 prebeta 5 from 4. May 2009

Отчёт EAC об извлечении, выполненном 31. декабря 2012, 20:17

Piper (Billy Squier) / {1976} Piper

Дисковод: ASUS SDRW-08D2S-U Adapter: 2 ID: 0

Режим чтения : Достоверность
Использование точного потока : Да
Отключение кэша аудио : Да
Использование указателей C2 : Нет

Коррекция смещения при чтении : 103
Способность читать области Lead-in и Lead-out : Нет
Заполнение пропущенных сэмплов тишиной : Да
Удаление блоков с тишиной в начале и конце : Нет
При вычислениях CRC использовались нулевые сэмплы : Да
Интерфейс : Встроенный Win32-интерфейс для Win NT/2000

Выходной формат : Пользовательский кодировщик
Выбранный битрейт : 768 kBit/s
Качество : Высокий
Добавление ID3-тэга : Нет
Утилита сжатия : C:\Program Files\Exact Audio Copy\FLAC\FLAC.EXE
Дополнительные параметры : -8 -V %s

TOC извлечённого CD

Трек | Старт | Длительность | Начальный сектор | Конечный сектор
---------------------------------------------------------------------
1 | 0:00.00 | 4:31.42 | 0 | 20366
2 | 4:31.42 | 4:10.58 | 20367 | 39174
3 | 8:42.25 | 4:17.50 | 39175 | 58499
4 | 13:00.00 | 6:19.62 | 58500 | 86986
5 | 19:19.62 | 4:28.48 | 86987 | 107134
6 | 23:48.35 | 2:41.25 | 107135 | 119234
7 | 26:29.60 | 3:31.47 | 119235 | 135106
8 | 30:01.32 | 3:45.35 | 135107 | 152016
9 | 33:46.67 | 4:27.38 | 152017 | 172079

Характеристики диапазона извлечения и сообщения об ошибках

Выбранный диапазон

Имя файла D:\uTorrent.compl\Piper - Can't Wait 1977 & Piper 1976 ( 1990 Original Japan 1st Press )\Piper - 1976 ( 1990 Original Japan Press PCCY-10122 )\Piper (Billy Squier) - {1976} Piper.wav

Пиковый уровень 94.3 %
Качество диапазона 100.0 %
CRC теста 2BCFA940
CRC копии 2BCFA940
Копирование... OK

Ошибок не произошло

AccurateRip: сводка

Трек 1 нет в базе данных
Трек 2 нет в базе данных
Трек 3 нет в базе данных
Трек 4 нет в базе данных
Трек 5 нет в базе данных
Трек 6 нет в базе данных
Трек 7 нет в базе данных
Трек 8 нет в базе данных
Трек 9 нет в базе данных

Ни одного трека нет в базе AccurateRip

Конец отчёта

CUETools 2.1.4 Log

[CUETools log; Date: 10/01/2013 18:38:46; Version: 2.1.4]
[AccurateRip ID: 000d96eb-0062cadb-6308f609] disk not present in database.

Track Peak [ CRC32 ] [W/O NULL]
-- 94,3 [2BCFA940] [044DE34B]
01 84,8 [67B6A91D] [B7A53673]
02 67,7 [89067173] [8AFEED89]
03 76,1 [C2A0144C] [711615A2]
04 72,1 [063416B4] [7068B2C8]
05 76,3 [14DBED57] [7CD697A6]
06 89,5 [15A16DD7] [C9D00027]
07 94,3 [B3414249] [4396A068]
08 84,5 [91B07ABC] [83142103]
09 86,8 [D1FA4A32] [53B0888C]


Personnel:

* Billy Squier - lead vocals, electric and acoustic guitars, percussion
* Alan Nolan - guitars, backing vocals
* Tommy Gunn - guitars, backing vocals
* Danny McGary - bass, backing vocals
* Richie Fontana - drums, percussion, backing vocals

Original Released Date: 1976
CD Released Date: 1990 by Pony Canyon Inc. Japan
Format: CD, Album
Length: 38:14


******************************************************

CD Rip by kurok79

The files are interchangeable!

Uploaded
Lossless part1 | Lossless part2 | MP3 | Scans

Depositfiles
Lossless part1 | Lossless part2 | MP3 | Scans

Cloudzer
Lossless part1 | Lossless part2 | MP3 | Scans


pw: www.AvaxHome.ru
ADVERTISING » Very Fast Download! « ADVERTISING


Posted By: imthepipe Date: 12 Jan 2013 11:26:48
Uploaded MP3 link - archive is missing track 05. Who's Your Boyfriend
Posted By: Cynetix Date: 12 Jan 2013 17:45:47
Cloudzer MP3 link - archive is missing track 05. Who's Your Boyfriend. Fail.
Posted By: datdemdar Date: 13 Jan 2013 03:51:20
Thank you. In the process of downloading the lossless. Piper SHOULD had made it big. Another group around that time was Bad Boy that should had made it big too. Another was called Rex.
Posted By: jclane Date: 14 Jan 2013 04:32:29
MP3 Fixed ;)
Posted By: lgsbestpal Date: 18 Mar 2013 06:25:02
Thanks for the upload!!