Loading...

David Lee Roth - Crazy From The Heat (1985) [EP] {Japan First Press}

Posted By : jclane | Date : 31 Jan 2012 04:07:50 | Comments : 3 |
|



David Lee Roth - Crazy From The Heat (1985) [EP]
EAC Rip | FLAC Image + Cue + Log | 88.1 MB | Complete Scans, 600 dpi PNG | 143 MB
MP3 CBR @320 kbps (LAME 3.98) | Joint Stereo | 33.9 MB
Warner-Pioneer Corporation, Japan. | 17P2-2621 | Hard Rock | RAR 3% Recovery

Crazy from the Heat is a 1985 EP by David Lee Roth, his debut solo release. It was released while he was still a member of Van Halen. All four songs on the EP are cover versions, with Roth's version of the Beach Boys hit "California Girls" peaking at #3 on the Billboard Hot 100, which was the same position that the Beach Boys original version reached twenty years prior to Roth's cover.

The song "Easy Street" is originally by Edgar Winter, the song "Coconut Grove" is originally by The Lovin' Spoonful. The medley of "Just a Gigolo" and "I Ain't Got Nobody" is based on Louis Prima's 1956 medley of the two songs.

In 1997, using the same title, Roth published Crazy from the Heat, his autobiography.

The last lyric in the chorus of the song "Goin' Crazy" from Roth's 1986 album Eat 'Em and Smile is taken from the name of this EP.

According to the liner notes, the cover picture of Roth was taken in the Seychelle Islands.

Crazy from the Heat is certified platinum by the RIAA, having sold over one million in the US.


Track Listing:

01. Easy Street 3:45
02. Medley: Just A Gigolo / I Ain't Got Nobody 4:39
03. California Girls 2:50
04. Coconut Grove 2:52

* Easy Street originally by Dan Hartman
* Girls originally by The Beach Boys
* Just A Gigolo originally by Louis Prima
* Coconut Grove originally by The Lovin' Spoonful


EAC Log

Exact Audio Copy V0.99 prebeta 5 from 4. May 2009

Отчёт EAC об извлечении, выполненном 28. января 2012, 20:25

David Lee Roth / Crazy From The Heat

Дисковод: Optiarc DVD RW AD-7201S Adapter: 2 ID: 1

Режим чтения : Достоверность
Использование точного потока : Да
Отключение кэша аудио : Да
Использование указателей C2 : Нет

Коррекция смещения при чтении : 48
Способность читать области Lead-in и Lead-out : Нет
Заполнение пропущенных сэмплов тишиной : Да
Удаление блоков с тишиной в начале и конце : Нет
При вычислениях CRC использовались нулевые сэмплы : Да
Интерфейс : Встроенный Win32-интерфейс для Win NT/2000

Выходной формат : Внутренние WAV-операции
Формат сэмплов : 44.100 Гц; 16 бит; стерео

TOC извлечённого CD

Трек | Старт | Длительность | Начальный сектор | Конечный сектор
---------------------------------------------------------------------
1 | 0:00.00 | 3:49.22 | 0 | 17196
2 | 3:49.22 | 4:43.20 | 17197 | 38441
3 | 8:32.42 | 2:50.70 | 38442 | 51261
4 | 11:23.37 | 2:53.18 | 51262 | 64254

Характеристики диапазона извлечения и сообщения об ошибках

Выбранный диапазон

Имя файла C:\Users\Desktop\David Lee Roth - Crazy From The Heat (Japan)\David Lee Roth - Crazy From The Heat.wav

Пиковый уровень 98.8 %
Качество диапазона 99.9 %
CRC теста BBAE9D72
CRC копии BBAE9D72
Копирование... OK

Ошибок не произошло

AccurateRip: сводка

Трек 1 точное извлечение (доверие 13) [B2F04294]
Трек 2 точное извлечение (доверие 12) [A8A29E93]
Трек 3 точное извлечение (доверие 12) [B37A21E8]
Трек 4 точное извлечение (доверие 12) [11C27235]

Все треки извлечены точно

Конец отчёта

CUETools 2.1.2a Log

[CUETools log; Date: 1/30/2012 12:10:16 PM; Version: 2.1.2a]
[CTDB TOCID: mtUZU9cDPOZv_AzTK8ibJw7ir0o-] found.
[ CTDBID ] Status
[ac818a71] (1/1) Accurately ripped
[AccurateRip ID: 00029c94-000a50cc-25035804] found.
Track [ CRC ] Status
01 [b2f04294] (13/16) Accurately ripped
02 [a8a29e93] (12/15) Accurately ripped
03 [b37a21e8] (12/15) Accurately ripped
04 [11c27235] (12/15) Accurately ripped
Offsetted by -42:
01 [4ba1b5c8] (03/16) Accurately ripped
02 [f41ab635] (03/15) Accurately ripped
03 [c968ba2c] (03/15) Accurately ripped
04 [e97ab243] (03/15) Accurately ripped

Track Peak [ CRC32 ] [W/O NULL]
-- 98.8 [BBAE9D72] [7B315C32]
01 77.0 [5DA1E3D4] [37F82CF8]
02 98.8 [6687980D] [046DC2C9]
03 89.8 [D29F59B5] [39DE6F00]
04 50.5 [45AD9D5A] [B98BB47C]


Personnel:

• David Lee Roth - vocals
• Dean Parks - guitars
• Eddie Martinez - guitars
• Sid McGinnis - guitars
• Willie Weeks - bass guitar
• John Robinson - drums
• Sammy Figueroa - drums
• Edgar Winter - keyboards
• Brian Mann - keyboards
• Carl Wilson - backing vocals on "California Girls"
• Christopher Cross - backing vocals on "California Girls"

Original Released Date: January 28, 1985
Recorded date: 1984
CD Released Date: 1985 by Warner-Pioneer Corporation, Japan.
Format: CD, EP, Japan Edition
Length: 14:06
Producer: Ted Templeman


--------------------------------------------------------------------------------


CD Rip by HURSH

The files are interchangeable!

No Mirrors Please!!!


Note: "L" is Lossless, "M" is MP3

Filepost

Uploaded

Letitbit: Flac | Mp3 | Scans


pw: www.AvaxHome.ru
ADVERTISING » Free Fast Download! « ADVERTISING


Posted By: SJbuzz Date: 31 Jan 2012 14:48:36
Thanks, also no files on Letitbit
Posted By: lgsbestpal Date: 28 Aug 2012 06:45:17
Thanks for the upload!!
Posted By: ADioS Date: 04 Aug 2013 20:27:39
A very fine share!
Thank you so much for this one. :)