Loading...

Queens of the Stone Age - Era Vulgaris (2007) (Canadian Limited Tour Edition)

Posted By : uff | Date : 01 Nov 2013 10:12:34 | Comments : 1 |
|



Queens of the Stone Age - Era Vulgaris (2007) (Canadian Limited Tour Edition)
Rock | 2cd | EAC Rip | Flac + Cue + Log | covers
Interscope 0251766927 | rel: 2008 | 912Mb

Josh Homme is a man of many talents, but he's not quite a man of his time. He floats outside of it, sniping and sneering at it, but he's not part of it -- he's too in love with rock & roll to belong to a decade that's seeing the music's slow decline. You could say that Queens of the Stone Age keep rock's flame burning, but unlike other new-millennium true believers -- like Jack White, for instance -- Homme lacks pop skills or even the interest in crossing over (which isn't the same thing as lacking hooks, mind you), and unlike the stoner metal underground that provided his training ground, he's not insular; he thrives on grand visions and grander sound. He's an anomaly, a keeper of the flame that will never be played on Little Steven's Rock & Roll Underground because Queens of the Stone Age are too heavy, too muso, too tasteless in all the wrong ways to be commonly accepted or embraced as among the next generation of rock heroes -- which only makes them more rock & roll, of course. And if rock & roll is indeed in decline in the 2000s, Homme and his Queens of the Stone Age prove that rock & roll can nevertheless be just as potent as it ever was with each of their remarkable albums. All are instantly identifiable as QOTSA but all are quite different from each other, from the sleazoid freak-out of R to the dark, gothic undertow of Lullabies to Paralyze, a record so willfully murky that it alienated a good portion of an audience ready to bolt in the wake of the departure of Homme's longtime partner, Nick Oliveri. Its 2007 successor, Era Vulgaris, is as different from Lullabies as that was to their dramatic widescreen breakthrough, Songs for the Deaf: it's mercilessly tight and precise, relentless in its momentum and cheerful in its maliciousness. Like other QOTSA albums, guest musicians are paraded in and out, but here it's impossible to tell if Mark Lanegan contributed anything or if that indeed is the Strokes' Julian Casablancas singing lead on the lethal "Sick, Sick, Sick," because Homme has honed Era Vulgaris so scrupulously that it's impossible to hear anybody else's imprint on the overall sound. QOTSA retain some of the spookiness of Lullabies -- there's a ghostly hue on "Into the Hollow" -- but this is as balls-out rock as Songs for the Deaf, only minus the mythic momentum Dave Grohl lent that record. But Era Vulgaris isn't designed as a monolith like Songs; its appeal is in its lean precision, how the riffs grind as if they were stripping screws of their threads, how the rhythms relentlessly pulse, and, of course, how it's all dressed up in all kinds of scalding guitars, all different sounds and tones, giving this menace and muscle. If the songs aren't pop crossovers -- not even the soulful seductive groove of "Make It Wit Chu" (revived from one of Homme's Desert Sessions) qualifies it as a potential pop hit -- they still have hard hooks that make these manifestos even if they aren't anthems: "Misfit Love" digs in like a nasty Urge Overkill, "Battery Acid" is metallic and mean, blind-sided only by the gargantuan, gnarly "3's & 7's." It's hard to call Era Vulgaris stripped-down -- there's too much color in the guitar, too much willful weirdness to be that -- but this is Queens of the Stone Age at their most elemental and efficient, never spending longer than necessary at each song, yet managing to make each of these three-minute blasts of fury sound like epics. It's exhilarating, the best rock & roll record yet released in 2007 -- and the year sure needed the dose of thunder that this album provides. ~Allmusic

Track listing
cd1:
1. "Turnin' on the Screw" – 5:20
2. "Sick, Sick, Sick" (Homme, Goss, Van Leeuwen, Castillo) – 3:34
3. "I'm Designer" – 4:04
4. "Into the Hollow" – 3:42
5. "Misfit Love" – 5:39
6. "Battery Acid" – 4:06
7. "Make It wit Chu" (Homme, Johannes, Melchiondo) – 4:50
8. "3's & 7's" – 3:34
9. "Suture Up Your Future" – 4:37
10. "River in the Road" – 3:19
11. "Run, Pig, Run" – 4:40
12. "Christian Brothers" (Elliott Smith cover) - 4:24
13. "Needles in the Camel's Eye" (Brian Eno cover) - 3:22
14. "Make It wit Chu (Acoustic)" - 4:50
15. "White Wedding" (Billy Idol cover) - 3:51
16. "Era Vulgaris (Richard File Remix)" (featuring Trent Reznor) – 6:06
cd2: (Live In Amsterdam)
1. "Monsters in the Parasol" – 3:34
2. "Misfit Love" – 6:41
3. "If Only" – 3:43
4. "I Think I Lost My Headache" - 6:10
5. "Into the Hollow" – 4:13
6. "Go with the Flow" – 3:22
7. "Regular John" - 10:59
8. "Avon" – 3:18
9. "Song for the Dead" - 7:13
Recorded live at the Paradiso in Amsterdam on 3 July 2007.

Personnel
- Josh Homme – vocals, guitar
- Troy Van Leeuwen – keyboard, guitars
- Joey Castillo - drums

eac logs:

Exact Audio Copy V0.99 prebeta 4 from 23. January 2008

EAC extraction logfile from 21. October 2008, 15:47

Queens Of The Stone Age / Era Vulgaris (Canada Limited Tour Edition, Eh!!)

Used drive : HL-DT-STDVD-RW_GSA-H11N Adapter: 2 ID: 0

Read mode : Secure
Utilize accurate stream : Yes
Defeat audio cache : No
Make use of C2 pointers : Yes

Read offset correction : 667
Overread into Lead-In and Lead-Out : Yes
Fill up missing offset samples with silence : No
Delete leading and trailing silent blocks : No
Null samples used in CRC calculations : No
Used interface : Native Win32 interface for Win NT & 2000
Gap handling : Appended to previous track

Used output format : User Defined Encoder
Selected bitrate : 128 kBit/s
Quality : High
Add ID3 tag : No
Command line compressor : C:\Program Files\FLAC\flac.exe
Additional command line options : -T "artist=%a" -T "title=%t" -T "album=%g" -T "date=%y" -T "tracknumber=%n" -T "genre=%m" -6 %s
Use compression offset : 0


TOC of the extracted CD

Track | Start | Length | Start sector | End sector
---------------------------------------------------------
1 | 0:00.00 | 5:20.27 | 0 | 24026
2 | 5:20.27 | 3:34.55 | 24027 | 40131
3 | 8:55.07 | 4:04.20 | 40132 | 58451
4 | 12:59.27 | 3:42.25 | 58452 | 75126
5 | 16:41.52 | 5:39.65 | 75127 | 100616
6 | 22:21.42 | 4:06.08 | 100617 | 119074
7 | 26:27.50 | 4:50.37 | 119075 | 140861
8 | 31:18.12 | 3:34.04 | 140862 | 156915
9 | 34:52.16 | 4:37.24 | 156916 | 177714
10 | 39:29.40 | 3:19.70 | 177715 | 192709
11 | 42:49.35 | 4:40.38 | 192710 | 213747
12 | 47:29.73 | 4:23.63 | 213748 | 233535
13 | 51:53.61 | 3:22.33 | 233536 | 248718
14 | 55:16.19 | 4:34.38 | 248719 | 269306
15 | 59:50.57 | 3:50.71 | 269307 | 286627
16 | 63:41.53 | 6:03.53 | 286628 | 313905


Track 1

Filename E:\QOTSA - Era Vulgaris (Canadian Tour Edition Eh)\01 Turnin On The Screw.wav

Pre-gap length 0:00:02.00

Peak level 98.7 %
Track quality 100.0 %
Copy CRC C739870B
Track not present in AccurateRip database
Copy OK

Track 2

Filename E:\QOTSA - Era Vulgaris (Canadian Tour Edition Eh)\02 Sick Sick Sick.wav

Peak level 98.7 %
Track quality 100.0 %
Copy CRC E5F1D9E5
Track not present in AccurateRip database
Copy OK

Track 3

Filename E:\QOTSA - Era Vulgaris (Canadian Tour Edition Eh)\03 I'm Designer.wav

Peak level 98.7 %
Track quality 100.0 %
Copy CRC BDD3353F
Track not present in AccurateRip database
Copy OK

Track 4

Filename E:\QOTSA - Era Vulgaris (Canadian Tour Edition Eh)\04 Into The Hollow.wav

Peak level 98.7 %
Track quality 100.0 %
Copy CRC 37CC2DE0
Track not present in AccurateRip database
Copy OK

Track 5

Filename E:\QOTSA - Era Vulgaris (Canadian Tour Edition Eh)\05 Misfit Love.wav

Peak level 98.7 %
Track quality 100.0 %
Copy CRC 9CE477BB
Track not present in AccurateRip database
Copy OK

Track 6

Filename E:\QOTSA - Era Vulgaris (Canadian Tour Edition Eh)\06 Battery Acid.wav

Peak level 98.7 %
Track quality 100.0 %
Copy CRC 4E29E1E6
Track not present in AccurateRip database
Copy OK

Track 7

Filename E:\QOTSA - Era Vulgaris (Canadian Tour Edition Eh)\07 Make It Wit Chu.wav

Peak level 98.7 %
Track quality 100.0 %
Copy CRC 1C480507
Track not present in AccurateRip database
Copy OK

Track 8

Filename E:\QOTSA - Era Vulgaris (Canadian Tour Edition Eh)\08 3's & 7's.wav

Peak level 98.7 %
Track quality 100.0 %
Copy CRC 6D15D88D
Track not present in AccurateRip database
Copy OK

Track 9

Filename E:\QOTSA - Era Vulgaris (Canadian Tour Edition Eh)\09 Suture Up Your Future.wav

Peak level 98.7 %
Track quality 100.0 %
Copy CRC 37174DAF
Track not present in AccurateRip database
Copy OK

Track 10

Filename E:\QOTSA - Era Vulgaris (Canadian Tour Edition Eh)\10 River In The Road.wav

Peak level 98.7 %
Track quality 100.0 %
Copy CRC 9E7F67CE
Track not present in AccurateRip database
Copy OK

Track 11

Filename E:\QOTSA - Era Vulgaris (Canadian Tour Edition Eh)\11 Run Pig Run.wav

Pre-gap length 0:00:00.65

Peak level 98.7 %
Track quality 99.9 %
Copy CRC 6FF00480
Track not present in AccurateRip database
Copy OK

Track 12

Filename E:\QOTSA - Era Vulgaris (Canadian Tour Edition Eh)\12 Christian Brothers.wav

Pre-gap length 0:00:01.19

Peak level 100.0 %
Track quality 100.0 %
Copy CRC 079EF7CC
Track not present in AccurateRip database
Copy OK

Track 13

Filename E:\QOTSA - Era Vulgaris (Canadian Tour Edition Eh)\13 Needles In The Camel's Eye.wav

Pre-gap length 0:00:01.06

Peak level 98.9 %
Track quality 100.0 %
Copy CRC 476BDCEA
Track not present in AccurateRip database
Copy OK

Track 14

Filename E:\QOTSA - Era Vulgaris (Canadian Tour Edition Eh)\14 Make It Wit Chu (live acoustic).wav

Pre-gap length 0:00:01.08

Peak level 98.9 %
Track quality 100.0 %
Copy CRC C59A2639
Track not present in AccurateRip database
Copy OK

Track 15

Filename E:\QOTSA - Era Vulgaris (Canadian Tour Edition Eh)\15 White Wedding.wav

Pre-gap length 0:00:01.10

Peak level 98.9 %
Track quality 100.0 %
Copy CRC 120AF13A
Track not present in AccurateRip database
Copy OK

Track 16

Filename E:\QOTSA - Era Vulgaris (Canadian Tour Edition Eh)\16 Era Vulgaris (Richard File Remix).wav

Pre-gap length 0:00:01.35

Suspicious position 0:06:03

Peak level 98.9 %
Track quality 99.7 %
Copy CRC EAAC27B8
Track not present in AccurateRip database
Copy finished


None of the tracks are present in the AccurateRip database

There were errors

End of status report

------------------------------------------------------------

Exact Audio Copy V0.99 prebeta 4 from 23. January 2008

EAC extraction logfile from 21. October 2008, 16:33

Queens Of The Stone Age / Era Vulgaris (Canada Limited Tour Edition, Eh!!)

Used drive : HL-DT-STDVD-RW_GSA-H11N Adapter: 2 ID: 0

Read mode : Secure
Utilize accurate stream : Yes
Defeat audio cache : No
Make use of C2 pointers : Yes

Read offset correction : 667
Overread into Lead-In and Lead-Out : Yes
Fill up missing offset samples with silence : No
Delete leading and trailing silent blocks : No
Null samples used in CRC calculations : No
Used interface : Native Win32 interface for Win NT & 2000
Gap handling : Appended to previous track

Used output format : Internal WAV Routines
Sample format : 44.100 Hz; 16 Bit; Stereo
Use compression offset : 0


TOC of the extracted CD

Track | Start | Length | Start sector | End sector
---------------------------------------------------------
1 | 0:00.00 | 5:20.27 | 0 | 24026
2 | 5:20.27 | 3:34.55 | 24027 | 40131
3 | 8:55.07 | 4:04.20 | 40132 | 58451
4 | 12:59.27 | 3:42.25 | 58452 | 75126
5 | 16:41.52 | 5:39.65 | 75127 | 100616
6 | 22:21.42 | 4:06.08 | 100617 | 119074
7 | 26:27.50 | 4:50.37 | 119075 | 140861
8 | 31:18.12 | 3:34.04 | 140862 | 156915
9 | 34:52.16 | 4:37.24 | 156916 | 177714
10 | 39:29.40 | 3:19.70 | 177715 | 192709
11 | 42:49.35 | 4:40.38 | 192710 | 213747
12 | 47:29.73 | 4:23.63 | 213748 | 233535
13 | 51:53.61 | 3:22.33 | 233536 | 248718
14 | 55:16.19 | 4:34.38 | 248719 | 269306
15 | 59:50.57 | 3:50.71 | 269307 | 286627
16 | 63:41.53 | 6:03.53 | 286628 | 313905


Track 1

Filename E:\QOTSA - Era Vulgaris (Canadian Tour Edition Eh)\01 Turnin On The Screw.wav

Pre-gap length 0:00:02.00

Peak level 98.7 %
Track quality 100.0 %
Test CRC C739870B
Copy CRC C739870B
Track not present in AccurateRip database
Copy OK

Track 2

Filename E:\QOTSA - Era Vulgaris (Canadian Tour Edition Eh)\02 Sick Sick Sick.wav

Peak level 98.7 %
Track quality 100.0 %
Test CRC E5F1D9E5
Copy CRC E5F1D9E5
Track not present in AccurateRip database
Copy OK

Track 3

Filename E:\QOTSA - Era Vulgaris (Canadian Tour Edition Eh)\03 I'm Designer.wav

Peak level 98.7 %
Track quality 100.0 %
Test CRC BDD3353F
Copy CRC BDD3353F
Track not present in AccurateRip database
Copy OK

Track 4

Filename E:\QOTSA - Era Vulgaris (Canadian Tour Edition Eh)\04 Into The Hollow.wav

Peak level 98.7 %
Track quality 100.0 %
Test CRC 37CC2DE0
Copy CRC 37CC2DE0
Track not present in AccurateRip database
Copy OK

Track 5

Filename E:\QOTSA - Era Vulgaris (Canadian Tour Edition Eh)\05 Misfit Love.wav

Peak level 98.7 %
Track quality 100.0 %
Test CRC 9CE477BB
Copy CRC 9CE477BB
Track not present in AccurateRip database
Copy OK

Track 6

Filename E:\QOTSA - Era Vulgaris (Canadian Tour Edition Eh)\06 Battery Acid.wav

Peak level 98.7 %
Track quality 100.0 %
Test CRC 4E29E1E6
Copy CRC 4E29E1E6
Track not present in AccurateRip database
Copy OK

Track 7

Filename E:\QOTSA - Era Vulgaris (Canadian Tour Edition Eh)\07 Make It Wit Chu.wav

Peak level 98.7 %
Track quality 100.0 %
Test CRC 1C480507
Copy CRC 1C480507
Track not present in AccurateRip database
Copy OK

Track 8

Filename E:\QOTSA - Era Vulgaris (Canadian Tour Edition Eh)\08 3's & 7's.wav

Peak level 98.7 %
Track quality 100.0 %
Test CRC 6D15D88D
Copy CRC 6D15D88D
Track not present in AccurateRip database
Copy OK

Track 9

Filename E:\QOTSA - Era Vulgaris (Canadian Tour Edition Eh)\09 Suture Up Your Future.wav

Peak level 98.7 %
Track quality 100.0 %
Test CRC 37174DAF
Copy CRC 37174DAF
Track not present in AccurateRip database
Copy OK

Track 10

Filename E:\QOTSA - Era Vulgaris (Canadian Tour Edition Eh)\10 River In The Road.wav

Peak level 98.7 %
Track quality 100.0 %
Test CRC 9E7F67CE
Copy CRC 9E7F67CE
Track not present in AccurateRip database
Copy OK

Track 11

Filename E:\QOTSA - Era Vulgaris (Canadian Tour Edition Eh)\11 Run Pig Run.wav

Pre-gap length 0:00:00.65

Peak level 98.7 %
Track quality 99.9 %
Test CRC 6FF00480
Copy CRC 6FF00480
Track not present in AccurateRip database
Copy OK

Track 12

Filename E:\QOTSA - Era Vulgaris (Canadian Tour Edition Eh)\12 Christian Brothers.wav

Pre-gap length 0:00:01.19

Peak level 100.0 %
Track quality 100.0 %
Test CRC 079EF7CC
Copy CRC 079EF7CC
Track not present in AccurateRip database
Copy OK

Track 13

Filename E:\QOTSA - Era Vulgaris (Canadian Tour Edition Eh)\13 Needles In The Camel's Eye.wav

Pre-gap length 0:00:01.06

Peak level 98.9 %
Track quality 100.0 %
Test CRC 476BDCEA
Copy CRC 476BDCEA
Track not present in AccurateRip database
Copy OK

Track 14

Filename E:\QOTSA - Era Vulgaris (Canadian Tour Edition Eh)\14 Make It Wit Chu (live acoustic).wav

Pre-gap length 0:00:01.08

Peak level 98.9 %
Track quality 100.0 %
Test CRC C59A2639
Copy CRC C59A2639
Track not present in AccurateRip database
Copy OK

Track 15

Filename E:\QOTSA - Era Vulgaris (Canadian Tour Edition Eh)\15 White Wedding.wav

Pre-gap length 0:00:01.10

Peak level 98.9 %
Track quality 100.0 %
Test CRC 120AF13A
Copy CRC 120AF13A
Track not present in AccurateRip database
Copy OK

Track 16

Filename E:\QOTSA - Era Vulgaris (Canadian Tour Edition Eh)\16 Era Vulgaris (Richard File Remix).wav

Pre-gap length 0:00:01.35

Suspicious position 0:06:03

Peak level 98.9 %
Track quality 99.7 %
Test CRC EAAC27B8
Copy CRC EAAC27B8
Track not present in AccurateRip database
Copy finished


None of the tracks are present in the AccurateRip database

There were errors

End of status report
----------
Exact Audio Copy V0.99 prebeta 4 from 23. January 2008

EAC extraction logfile from 21. October 2008, 16:22

Queens of the Stone Age / Era Vulgaris (Tour Edition Live CD)

Used drive : HL-DT-STDVD-RW_GSA-H11N Adapter: 2 ID: 0

Read mode : Secure
Utilize accurate stream : Yes
Defeat audio cache : No
Make use of C2 pointers : Yes

Read offset correction : 667
Overread into Lead-In and Lead-Out : Yes
Fill up missing offset samples with silence : No
Delete leading and trailing silent blocks : No
Null samples used in CRC calculations : No
Used interface : Native Win32 interface for Win NT & 2000
Gap handling : Left out

Used output format : Internal WAV Routines
Sample format : 44.100 Hz; 16 Bit; Stereo
Use compression offset : 0


TOC of the extracted CD

Track | Start | Length | Start sector | End sector
---------------------------------------------------------
1 | 0:00.00 | 3:34.07 | 0 | 16056
2 | 3:34.07 | 6:41.00 | 16057 | 46131
3 | 10:15.07 | 3:42.59 | 46132 | 62840
4 | 13:57.66 | 6:09.71 | 62841 | 90586
5 | 20:07.62 | 4:13.29 | 90587 | 109590
6 | 24:21.16 | 3:21.50 | 109591 | 124715
7 | 27:42.66 | 10:59.04 | 124716 | 174144
8 | 38:41.70 | 3:17.51 | 174145 | 188970
9 | 41:59.46 | 7:12.55 | 188971 | 221425


Track 1

Filename E:\QOTSA - Era Vulgaris (Canadian Tour Edition Eh)\QOTSA Amsterdam Bonus disc\01 Monsters In The Parasol (Live).wav

Pre-gap length 0:00:02.00

Peak level 99.8 %
Track quality 100.0 %
Copy CRC 8EC4B1FD
Accurately ripped (confidence 4) [388BCC55]
Copy OK

Track 2

Filename E:\QOTSA - Era Vulgaris (Canadian Tour Edition Eh)\QOTSA Amsterdam Bonus disc\02 Misfit Love (Live).wav

Peak level 98.5 %
Track quality 100.0 %
Copy CRC 9FD21E64
Accurately ripped (confidence 5) [6084459D]
Copy OK

Track 3

Filename E:\QOTSA - Era Vulgaris (Canadian Tour Edition Eh)\QOTSA Amsterdam Bonus disc\03 If Only (Live).wav

Peak level 98.8 %
Track quality 99.9 %
Copy CRC AD0DD639
Accurately ripped (confidence 5) [BE223CD2]
Copy OK

Track 4

Filename E:\QOTSA - Era Vulgaris (Canadian Tour Edition Eh)\QOTSA Amsterdam Bonus disc\04 I Think I Lost My Headache (Live).wav

Peak level 98.8 %
Track quality 100.0 %
Copy CRC 9E676768
Accurately ripped (confidence 5) [97F03E5B]
Copy OK

Track 5

Filename E:\QOTSA - Era Vulgaris (Canadian Tour Edition Eh)\QOTSA Amsterdam Bonus disc\05 Into The Hollow (Live).wav

Peak level 99.0 %
Track quality 99.9 %
Copy CRC 181E05BD
Accurately ripped (confidence 5) [3E2EBDA8]
Copy OK

Track 6

Filename E:\QOTSA - Era Vulgaris (Canadian Tour Edition Eh)\QOTSA Amsterdam Bonus disc\06 Go With The Flow (Live).wav

Peak level 98.9 %
Track quality 100.0 %
Copy CRC 9D2B1150
Accurately ripped (confidence 5) [19BFFCD7]
Copy OK

Track 7

Filename E:\QOTSA - Era Vulgaris (Canadian Tour Edition Eh)\QOTSA Amsterdam Bonus disc\07 Regular John (Live).wav

Peak level 99.1 %
Track quality 100.0 %
Copy CRC 56B88F21
Accurately ripped (confidence 5) [366460D4]
Copy OK

Track 8

Filename E:\QOTSA - Era Vulgaris (Canadian Tour Edition Eh)\QOTSA Amsterdam Bonus disc\08 Avon (Live).wav

Peak level 99.0 %
Track quality 100.0 %
Copy CRC F7F34409
Accurately ripped (confidence 5) [2F9853B6]
Copy OK

Track 9

Filename E:\QOTSA - Era Vulgaris (Canadian Tour Edition Eh)\QOTSA Amsterdam Bonus disc\09 Song For The Dead (Live).wav

Peak level 99.0 %
Track quality 100.0 %
Copy CRC 20E233A4
Accurately ripped (confidence 5) [928D3A7E]
Copy OK


All tracks accurately ripped

No errors occurred

End of status report


cuetools reports:

[CUETools log; Date: 2013.10.29. 14:22:07; Version: 2.1.4]
[CTDB TOCID: SXKCFFHz3Wuh3Ygsmr0p7GIEgkY-] found.
Track | CTDB Status
1 | (1/1) Accurately ripped
2 | (1/1) Accurately ripped
3 | (1/1) Accurately ripped
4 | (1/1) Accurately ripped
5 | (1/1) Accurately ripped
6 | (1/1) Accurately ripped
7 | (1/1) Accurately ripped
8 | (1/1) Accurately ripped
9 | (1/1) Accurately ripped
10 | (1/1) Accurately ripped
11 | (1/1) Accurately ripped
12 | (1/1) Accurately ripped
13 | (1/1) Accurately ripped
14 | (1/1) Accurately ripped
15 | (1/1) Accurately ripped
16 | (1/1) Accurately ripped
[AccurateRip ID: 00287555-01e3a59e-d6105910] found.
Track [ CRC | V2 ] Status
01 [e83133d5|926bf7fd] (0+3/3) Accurately ripped
02 [8d25f589|f0c4e624] (0+3/3) Accurately ripped
03 [22bb6df6|589e71d3] (0+3/3) Accurately ripped
04 [b8d19c4f|1a030042] (0+3/3) Accurately ripped
05 [d6b4eef8|7b0f135b] (0+3/3) Accurately ripped
06 [713a2f24|dd52fde7] (0+3/3) Accurately ripped
07 [afc5fa20|2886c21f] (0+3/3) Accurately ripped
08 [81cf15ae|243c2a5d] (0+3/3) Accurately ripped
09 [ef68f28f|7bcb9d34] (0+3/3) Accurately ripped
10 [b3367d76|0e491a1c] (0+3/3) Accurately ripped
11 [cf7cfafb|e2d1661b] (0+3/3) Accurately ripped
12 [618bb38c|100300aa] (2+3/5) Accurately ripped
13 [e9321258|2087ae71] (2+3/5) Accurately ripped
14 [763bb8b0|4957b98a] (2+3/5) Accurately ripped
15 [7d709bb4|4f75b782] (2+3/5) Accurately ripped
16 [39bda52a|aa30a5b1] (2+3/5) Accurately ripped

Track Peak [ CRC32 ] [W/O NULL] [ LOG ]
-- 100,0 [DF27A3EA] [25DD4169]
01 98,7 [E9C5D40E] [C739870B] W/O NULL
02 98,7 [9E306515] [E5F1D9E5] W/O NULL
03 98,7 [2B49268C] [BDD3353F] W/O NULL
04 98,7 [F1697CD2] [37CC2DE0] W/O NULL
05 98,7 [2E146684] [9CE477BB] W/O NULL
06 98,7 [6DA6182F] [4E29E1E6] W/O NULL
07 98,7 [A517FBE8] [1C480507] W/O NULL
08 98,7 [04B1AFA2] [6D15D88D] W/O NULL
09 98,7 [00610975] [37174DAF] W/O NULL
10 98,7 [4E0198F1] [9E7F67CE] W/O NULL
11 98,7 [0F05F158] [6FF00480] W/O NULL
12 100,0 [00F8D183] [079EF7CC] W/O NULL
13 98,9 [BA161A08] [476BDCEA] W/O NULL
14 98,9 [A7BB0CC3] [C59A2639] W/O NULL
15 98,9 [5627A325] [120AF13A] W/O NULL
16 98,9 [054AC991] [EAAC27B8] W/O NULL
---
[CUETools log; Date: 2013.10.29. 14:23:26; Version: 2.1.4]
[CTDB TOCID: aqlw_pW2Np83uf9soKaEhQrWuro-] found.
Track | CTDB Status
1 | (9/9) Accurately ripped
2 | (9/9) Accurately ripped
3 | (9/9) Accurately ripped
4 | (9/9) Accurately ripped
5 | (9/9) Accurately ripped
6 | (9/9) Accurately ripped
7 | (9/9) Accurately ripped
8 | (9/9) Accurately ripped
9 | (9/9) Accurately ripped
[AccurateRip ID: 000fc8e2-0075b2f7-6c0b8809] found.
Track [ CRC | V2 ] Status
01 [388bcc55|a2ecf1fe] (17+15/39) Accurately ripped
02 [6084459d|c981f2ea] (18+15/40) Accurately ripped
03 [be223cd2|e297851c] (18+15/40) Accurately ripped
04 [97f03e5b|768a93c1] (18+15/40) Accurately ripped
05 [3e2ebda8|74f8238f] (18+15/40) Accurately ripped
06 [19bffcd7|5ac87d86] (18+15/40) Accurately ripped
07 [366460d4|9e7598ca] (18+15/40) Accurately ripped
08 [2f9853b6|4ceeb7e3] (18+15/40) Accurately ripped
09 [928d3a7e|7fa89140] (18+15/40) Accurately ripped
Offsetted by -646:
01 [1e99078b] (02/39) Accurately ripped
02 [ae8176e8] (02/40) Accurately ripped
03 [966fc9e2] (02/40) Accurately ripped
04 [b2342376] (02/40) Accurately ripped
05 [6edd3fcd] (02/40) Accurately ripped
06 [6a940735] (02/40) Accurately ripped
07 [72613c97] (02/40) Accurately ripped
08 [d7a3d883] (02/40) Accurately ripped
09 [8fa45f4d] (02/40) Accurately ripped
Offsetted by -12:
01 [1183e180] (00/39) No match (V2 was not tested)
02 [8e9e6f48] (00/40) No match (V2 was not tested)
03 [0c6a0f44] (00/40) No match (V2 was not tested)
04 [89db6851] (00/40) No match (V2 was not tested)
05 [a887ff46] (00/40) No match (V2 was not tested)
06 [cc32099f] (00/40) No match (V2 was not tested)
07 [3e5f86a0] (00/40) No match (V2 was not tested)
08 [38ec6d17] (00/40) No match (V2 was not tested)
09 [545d176d] (00/40) No match (V2 was not tested)

Track Peak [ CRC32 ] [W/O NULL] [ LOG ]
-- 99,8 [87980DA7] [0A77067F]
01 99,8 [D4B12B48] [8EC4B1FD] W/O NULL
02 98,5 [E5DB0649] [9FD21E64] W/O NULL
03 98,8 [87291011] [AD0DD639] W/O NULL
04 98,8 [3E14B781] [9E676768] W/O NULL
05 99,0 [D8EA06CC] [181E05BD] W/O NULL
06 98,9 [83FB4303] [9D2B1150] W/O NULL
07 99,1 [87552790] [56B88F21] W/O NULL
08 99,0 [02B748AD] [F7F34409] W/O NULL
09 99,0 [ECB64073] [20E233A4] W/O NULL



original uploader unknown, found in my archive

ADVERTISING » Click here to download Ebooks/Magazines for free « ADVERTISING


Posted By: Antipop Date: 23 Dec 2013 11:46:23
Thanks for sharing and for using mirrors.