Loading...

Led Zeppelin: RetroActive Promo Box Set (2001)

Posted By : v3122 | Date : 07 Nov 2013 10:46:12 | Comments : 4 |
|


Led Zeppelin: RetroActive Promo Box Set (2001) front

Led Zeppelin: RetroActive Promo Box Set (2001)
EAC | Flac(Image) + Cue + Log & iPod M4A(Tracks) & MP3 CBR 320Kbp's
3CD | Warner/Chappell, RA-003 3 | ~ 1471 or 1482 or 512 Mb | Scans(jpg, 600dpi) -> 170 Mb
Classic Rock / Hard Rock / Blues Rock

Mega Rare 2001 US promotional limited edition Warner/Retro Active label in-house publishing-only 40-track 3-CD set, each CD is housed inside a custom card wallet featuring a different black & white picture of different people holding different Led Zeppelin albums on one side & the track listing for that CD on the other. Also includes a 12-page picture booklet featuring a picture of each band member, intro from Cameron Crowe & discography, all housed inside a superb 5" x 5" numbered clamshell 'Zeppelin disaster' picture box. Only 2500 copies produced...

Led Zeppelin: RetroActive Promo Box Set (2001)

Led Zeppelin: RetroActive Promo Box Set (2001):

Led Zeppelin: RetroActive Promo Box Set (2001) cd1

Tracklist CD1:

1. Dazed And Confused 6:26
2. Good Times Bad Times 2:46
3. Communication Breakdown 2:27
4. Babe I'M Gonna Leave You 6:41
5. Whole Lotta Love 5:34
6. Ramble On 4:23
7. Heartbreaker 4:14
8. What Is And What Should Never Be 4:44
9. Thank You 4:47
10. Immigrant Song 2:23
11. Celebration Day 3:28
12. Since I'Ve Been Loving You 7:24
13. Hey Hey What Can I Do 3:56
14. Out On The Tiles 4:05
15. Black Dog 4:54
16. Rock And Roll 3:40

EAC Log
Exact Audio Copy V0.99 prebeta 5 from 4. May 2009

EAC extraction logfile from 18. October 2013, 19:16

Led Zeppellin / RetroActive Promo Box Set RA-003 (Disc 1)

Used drive : PLEXTOR DVDR PX-L890SA Adapter: 1 ID: 0

Read mode : Secure
Utilize accurate stream : Yes
Defeat audio cache : Yes
Make use of C2 pointers : No

Read offset correction : 6
Overread into Lead-In and Lead-Out : No
Fill up missing offset samples with silence : Yes
Delete leading and trailing silent blocks : No
Null samples used in CRC calculations : Yes
Used interface : Native Win32 interface for Win NT & 2000

Used output format : User Defined Encoder
Selected bitrate : 768 kBit/s
Quality : High
Add ID3 tag : No
Command line compressor : d:\Program Files\Exact Audio Copy\FLAC\FLAC.EXE
Additional command line options : -T "DATE=%y" -T "GENRE=%m" -8 -V %s


TOC of the extracted CD

Track | Start | Length | Start sector | End sector
---------------------------------------------------------
1 | 0:00.00 | 6:28.20 | 0 | 29119
2 | 6:28.20 | 2:47.60 | 29120 | 41704
3 | 9:16.05 | 2:29.27 | 41705 | 52906
4 | 11:45.32 | 6:43.28 | 52907 | 83159
5 | 18:28.60 | 5:35.55 | 83160 | 108339
6 | 24:04.40 | 4:25.32 | 108340 | 128246
7 | 28:29.72 | 4:16.13 | 128247 | 147459
8 | 32:46.10 | 4:45.72 | 147460 | 168906
9 | 37:32.07 | 4:51.38 | 168907 | 190769
10 | 42:23.45 | 2:25.32 | 190770 | 201676
11 | 44:49.02 | 3:30.40 | 201677 | 217466
12 | 48:19.42 | 7:25.50 | 217467 | 250891
13 | 55:45.17 | 3:57.70 | 250892 | 268736
14 | 59:43.12 | 4:07.05 | 268737 | 287266
15 | 63:50.17 | 4:56.03 | 287267 | 309469
16 | 68:46.20 | 3:40.07 | 309470 | 325976


Range status and errors

Selected range

Filename H:\MUSIC\COLLECTION\2001 RetroActive Promo Box\Led Zeppelin - RetroActive Promo Box Set (Disc 1).wav

Peak level 96.5 %
Range quality 99.9 %
Test CRC 4D1988B6
Copy CRC 4D1988B6
Copy OK

No errors occurred


AccurateRip summary

Track 1 accurately ripped (confidence 3) [BF1752FA]
Track 2 accurately ripped (confidence 3) [DB6A3A07]
Track 3 accurately ripped (confidence 3) [42053BF7]
Track 4 accurately ripped (confidence 3) [D7A7AD10]
Track 5 accurately ripped (confidence 3) [49FBAD3D]
Track 6 accurately ripped (confidence 3) [7C2A6200]
Track 7 accurately ripped (confidence 3) [A7DE957F]
Track 8 accurately ripped (confidence 3) [E4BDD3AC]
Track 9 accurately ripped (confidence 3) [BC354AFF]
Track 10 accurately ripped (confidence 3) [4236E2F3]
Track 11 accurately ripped (confidence 3) [815228DE]
Track 12 accurately ripped (confidence 3) [48CE5ABD]
Track 13 accurately ripped (confidence 3) [938F65F9]
Track 14 accurately ripped (confidence 3) [7FF419EB]
Track 15 accurately ripped (confidence 3) [AEA7FCB7]
Track 16 accurately ripped (confidence 3) [1B9A1F2C]

All tracks accurately ripped

End of status report

DR Log
foobar2000 1.2.9 / Dynamic Range Meter 1.1.1
log date: 2013-11-07 12:00:15

--------------------------------------------------------------------------------
Analyzed: Led Zeppellin / RetroActive Promo Box Set RA-003 (Disc 1)
--------------------------------------------------------------------------------

DR Peak RMS Duration Track
--------------------------------------------------------------------------------
DR8 -0.31 dB -10.46 dB 6:28 01-Dazed and Confused
DR8 -0.31 dB -9.64 dB 2:48 02-Good Times Bad Times
DR7 -0.31 dB -9.53 dB 2:29 03-Communication Breakdown
DR9 -0.31 dB -12.36 dB 6:43 04-Babe Im Gonna Leave You
DR10 -0.31 dB -12.82 dB 5:36 05-Whole Lotta Love
DR9 -0.31 dB -12.92 dB 4:25 06-Ramble On
DR8 -0.31 dB -10.43 dB 4:16 07-Heartbreaker
DR10 -0.31 dB -14.20 dB 4:46 08-What Is and What Should Never Be
DR11 -0.31 dB -15.75 dB 4:52 09-Thank You
DR10 -0.31 dB -11.54 dB 2:25 10-Immigrant Song
DR9 -0.31 dB -11.36 dB 3:31 11-Celebration Day
DR10 -0.31 dB -13.36 dB 7:26 12-Since Ive Been Loving You
DR9 -0.30 dB -11.57 dB 3:58 13-Hey Hey What Can I Do
DR9 -0.31 dB -10.73 dB 4:07 14-Out On The Tiles
DR8 -0.31 dB -10.88 dB 4:56 15-Black Dog
DR8 -0.31 dB -9.46 dB 3:40 16-Rock and Roll
--------------------------------------------------------------------------------

Number of tracks: 16
Official DR value: DR9

Samplerate: 44100 Hz
Channels: 2
Bits per sample: 16
Bitrate: 902 kbps
Codec: FLAC

Led Zeppelin: RetroActive Promo Box Set (2001) cd2

Tracklist CD2:

1. Stairway To Heaven 8:00
2. The Battle Of Evermore 5:51
3. When the Levee Breaks 7:07
4. Misty Mountain Hop 4:38
5. Going To California 3:31
6. Over The Hills And Far Away 4:47
7. Dancing Days 3:41
8. The Rain Song 7:39
9. The Ocean 4:30
10. Houses Of The Holy 4:01
11. D'Yer Mak'er 4:22
12. No Quarter 6:59
13. The Song Remains The Same 5:28

EAC Log
Exact Audio Copy V0.99 prebeta 5 from 4. May 2009

EAC extraction logfile from 17. October 2013, 19:31

Led Zeppelin / RetroActive Promo Box Set RA-003 (Disc 2)

Used drive : Optiarc DVD RW AD-7263S Adapter: 2 ID: 0

Read mode : Secure
Utilize accurate stream : Yes
Defeat audio cache : Yes
Make use of C2 pointers : No

Read offset correction : 48
Overread into Lead-In and Lead-Out : No
Fill up missing offset samples with silence : Yes
Delete leading and trailing silent blocks : No
Null samples used in CRC calculations : Yes
Used interface : Native Win32 interface for Win NT & 2000

Used output format : User Defined Encoder
Selected bitrate : 768 kBit/s
Quality : High
Add ID3 tag : No
Command line compressor : d:\Program Files\Exact Audio Copy\FLAC\FLAC.EXE
Additional command line options : -T "DATE=%y" -T "GENRE=%m" -8 -V %s


TOC of the extracted CD

Track | Start | Length | Start sector | End sector
---------------------------------------------------------
1 | 0:00.00 | 8:01.72 | 0 | 36146
2 | 8:01.72 | 5:53.68 | 36147 | 62689
3 | 13:55.65 | 7:10.00 | 62690 | 94939
4 | 21:05.65 | 4:40.67 | 94940 | 116006
5 | 25:46.57 | 3:32.38 | 116007 | 131944
6 | 29:19.20 | 4:51.37 | 131945 | 153806
7 | 34:10.57 | 3:43.28 | 153807 | 170559
8 | 37:54.10 | 7:40.50 | 170560 | 205109
9 | 45:34.60 | 4:32.60 | 205110 | 225569
10 | 50:07.45 | 4:04.10 | 225570 | 243879
11 | 54:11.55 | 4:24.25 | 243880 | 263704
12 | 58:36.05 | 7:01.27 | 263705 | 295306
13 | 65:37.32 | 5:30.18 | 295307 | 320074


Range status and errors

Selected range

Filename H:\MUSIC\COLLECTION\2001 RetroActive Promo Box\Led Zeppelin - RetroActive Promo Box Set (Disc 2).wav

Peak level 99.8 %
Range quality 100.0 %
Test CRC 0195BA3D
Copy CRC 0195BA3D
Copy OK

No errors occurred


AccurateRip summary

Track 1 accurately ripped (confidence 3) [A0E2DB1B]
Track 2 accurately ripped (confidence 3) [11A587BC]
Track 3 accurately ripped (confidence 3) [008E6AFE]
Track 4 accurately ripped (confidence 3) [F05BE126]
Track 5 accurately ripped (confidence 3) [BF03DDAE]
Track 6 accurately ripped (confidence 3) [D4483C31]
Track 7 accurately ripped (confidence 3) [4CFE7935]
Track 8 accurately ripped (confidence 3) [5C2B134C]
Track 9 accurately ripped (confidence 3) [3B49F561]
Track 10 accurately ripped (confidence 3) [0E3921C3]
Track 11 accurately ripped (confidence 3) [65D6F7F9]
Track 12 accurately ripped (confidence 2) [6F4B9F98]
Track 13 cannot be verified as accurate (confidence 1) [A162C3C9], AccurateRip returned [5F9CEB0D]

12 track(s) accurately ripped
1 track(s) could not be verified as accurate

Some tracks could not be verified as accurate

End of status report

DR Log
foobar2000 1.2.9 / Dynamic Range Meter 1.1.1
log date: 2013-11-07 12:00:38

--------------------------------------------------------------------------------
Analyzed: Led Zeppelin / RetroActive Promo Box Set RA-003 (Disc 2)
--------------------------------------------------------------------------------

DR Peak RMS Duration Track
--------------------------------------------------------------------------------
DR9 -0.14 dB -13.77 dB 8:02 01-Stairway To Heaven
DR10 -0.38 dB -14.14 dB 5:54 02-The Battle Of Evermore
DR8 -0.01 dB -9.85 dB 7:10 03-When The Levee Breaks
DR8 -0.01 dB -9.57 dB 4:41 04-Misty Mountain Hop
DR10 -2.36 dB -16.34 dB 3:33 05-Going To California
DR10 -0.01 dB -13.96 dB 4:51 06-Over The Hills and Far Away
DR9 -0.02 dB -10.77 dB 3:43 07-Dancing Days
DR9 -0.06 dB -12.72 dB 7:41 08-The Rain Song
DR9 -0.07 dB -11.25 dB 4:33 09-The Ocean
DR8 -0.02 dB -10.21 dB 4:04 10-Houses Of The Holy
DR11 -0.09 dB -12.70 dB 4:24 11-D'yer Mak'er
DR10 -0.10 dB -14.45 dB 7:01 12-No Quarter
DR9 -0.01 dB -10.36 dB 5:30 13-The Song Remains The Same
--------------------------------------------------------------------------------

Number of tracks: 13
Official DR value: DR9

Samplerate: 44100 Hz
Channels: 2
Bits per sample: 16
Bitrate: 887 kbps
Codec: FLAC

Led Zeppelin: RetroActive Promo Box Set (2001) cd3

Tracklist CD3:

1. Kashmir 8:31
2. Sick Again 4:43
3. Trampled Under Foot 5:35
4. In The Light 8:44
5. The Wanton Song 4:06
6. Ten Years Gone 6:31
7. Nobody's Fault But Mine 6:27
8. Achilles Last Stand 10:22
9. Fool In The Rain 6:12
10. All My Love 5:53
11. In The Evening 6:49

EAC Log
Exact Audio Copy V0.99 prebeta 5 from 4. May 2009

EAC extraction logfile from 17. October 2013, 20:25

Led Zeppelin / RetroActive Promo Box Disk 3

Used drive : Optiarc DVD RW AD-7263S Adapter: 2 ID: 0

Read mode : Secure
Utilize accurate stream : Yes
Defeat audio cache : Yes
Make use of C2 pointers : No

Read offset correction : 48
Overread into Lead-In and Lead-Out : No
Fill up missing offset samples with silence : Yes
Delete leading and trailing silent blocks : No
Null samples used in CRC calculations : Yes
Used interface : Native Win32 interface for Win NT & 2000

Used output format : User Defined Encoder
Selected bitrate : 768 kBit/s
Quality : High
Add ID3 tag : No
Command line compressor : d:\Program Files\Exact Audio Copy\FLAC\FLAC.EXE
Additional command line options : -T "DATE=%y" -T "GENRE=%m" -8 -V %s


TOC of the extracted CD

Track | Start | Length | Start sector | End sector
---------------------------------------------------------
1 | 0:00.00 | 8:29.42 | 0 | 38216
2 | 8:29.42 | 4:44.53 | 38217 | 59569
3 | 13:14.20 | 5:38.22 | 59570 | 84941
4 | 18:52.42 | 8:47.25 | 84942 | 124491
5 | 27:39.67 | 4:09.45 | 124492 | 143211
6 | 31:49.37 | 6:34.13 | 143212 | 172774
7 | 38:23.50 | 6:17.72 | 172775 | 201121
8 | 44:41.47 | 10:24.18 | 201122 | 247939
9 | 55:05.65 | 6:14.35 | 247940 | 276024
10 | 61:20.25 | 5:53.15 | 276025 | 302514
11 | 67:13.40 | 6:46.57 | 302515 | 333021


Range status and errors

Selected range

Filename H:\MUSIC\COLLECTION\2001 RetroActive Promo Box\Led Zeppelin - RetroActive Promo Box Set (Disc 3).wav

Peak level 99.8 %
Range quality 100.0 %
Test CRC F2E971FE
Copy CRC F2E971FE
Copy OK

No errors occurred


AccurateRip summary

Track 1 accurately ripped (confidence 3) [C9052098]
Track 2 accurately ripped (confidence 3) [F5DC7D09]
Track 3 accurately ripped (confidence 3) [A087DEFA]
Track 4 accurately ripped (confidence 3) [6B4B570D]
Track 5 accurately ripped (confidence 3) [FD592820]
Track 6 accurately ripped (confidence 3) [4090B8D5]
Track 7 accurately ripped (confidence 3) [0056444C]
Track 8 accurately ripped (confidence 3) [55F92764]
Track 9 accurately ripped (confidence 2) [6949E647]
Track 10 accurately ripped (confidence 2) [9165B07B]
Track 11 accurately ripped (confidence 2) [B79AE432]

All tracks accurately ripped

End of status report

DR Log
foobar2000 1.2.9 / Dynamic Range Meter 1.1.1
log date: 2013-11-07 12:00:59

--------------------------------------------------------------------------------
Analyzed: Led Zeppelin / RetroActive Promo Box Disk 3
--------------------------------------------------------------------------------

DR Peak RMS Duration Track
--------------------------------------------------------------------------------
DR9 -0.01 dB -11.06 dB 8:30 01-Kashmir
DR8 -0.01 dB -10.20 dB 4:45 02-Sick Again
DR8 -0.01 dB -10.04 dB 5:38 03-Trampled Under Foot
DR10 -0.21 dB -14.09 dB 8:47 04-In The Light
DR9 -0.25 dB -10.95 dB 4:10 05-The Wanton Song
DR9 -0.29 dB -13.05 dB 6:34 06-Ten Years Gone
DR9 -0.01 dB -10.95 dB 6:18 07-Nobody's Fault But Mine
DR9 -0.01 dB -10.30 dB 10:24 08-Achilles Last Stand
DR9 -0.01 dB -11.56 dB 6:14 09-Fool In The Rain
DR10 -0.01 dB -12.62 dB 5:53 10-All My Love
DR10 -0.01 dB -11.42 dB 6:47 11-In The Evening
--------------------------------------------------------------------------------

Number of tracks: 11
Official DR value: DR9

Samplerate: 44100 Hz
Channels: 2
Bits per sample: 16
Bitrate: 937 kbps
Codec: FLAC

Led Zeppelin: RetroActive Promo Box Set (2001) back

All thanks go to snakesharmer

Download Led Zeppelin: RetroActive Promo Box Set (2001):

Uploaded | Bitshare

Pass: www.avaxhome.ru
ADVERTISING » Free Fast Download! « ADVERTISING


Posted By: karolus_2013 Date: 07 Nov 2013 11:22:54
Excellent post, thanks!!!
Posted By: FrancyD Date: 09 Nov 2013 08:00:22
Thanks to snakesharmer and v3122 for the share!!
Posted By: Jagged Date: 09 Nov 2013 15:58:55
Thank you very much...
Posted By: virginiawolf Date: 23 Dec 2013 15:57:43
many thanks!