Loading...

Heaven & Earth - Dig (2013)

Posted By : Andi_Deris | Date : 27 Apr 2013 08:39:40 | Comments : 0 |
|



Heaven & Earth - Dig (2013)
EAC Rip | FLAC: IMAGE+CUE+LOG | 448.57 MB | MP3 CBR 320 kbps | 150.03 MB | SCANS | Time: 58:17
Genre: Hard Rock | Label: Quatro Valley Records, Inc. | Cat.#: QVR CD 0101

Taking up from where iconic bands like Deep Purple and Bad Company have left off, Heaven & Earth is on a mission to resurrect the sanctity of classic rock to its purist, most accessible form. Heaven & Earth fuses elements of hard rock, blues, even bits of classical, to create a potent blend of high-powered anthems, melodic rockers and introspective ballads that evoke the spirit of a magical era.


Heaven & Earth
Wikipedia
Classic Rock Revisited




Track Listing:

1. Victorious (6:15)
2. No Money, No Love (4:01)
3. I Don't Know What Love Is (5:51)
4. Man & Machine (4:06)
5. House of Blues (6:12)
6. Back in Anger (4:55)
7. Waiting for the End of the World (4:55)
8. Sexual Insanity (5:36)
9. Rock & Roll Does (3:52)
10. A Day Like Today (4:19)
11. Good Times (3:48)
12. Live as One (4:27)

Executive Producer: Bruce Quatro
Produced, Engineered & Mixed by Dave Jenkins

THE BAND:

Joe Retta - Vocals
Stuart Smith - Guitars
Chuck Wright - Bass Guitar
Richie Onori - Drums
Arlan Schierbaum - Keyboards

Stuart Smith is the founding member and leader of the band Heaven & Earth. One could ask, “Where on heaven and earth, then, are all the albums? These guys have been around since the 1990’s for god sakes!” Yep, its true, H&E’s output has been limited to 1998’s Heaven and Earth, 2001’s Windows to the World, 2006’s EP A Taste of Heaven and a DVD Making of Heaven & Earth, released in 2007. Now, they have come back for more in 2013, this time with the album Dig. This is a damn fine roots hard rock style album. Smith, however, is a dynamo on the electric guitar and is at his best when both he, and Heaven & Earth, are pushing it at full throttle. By Jeb Wright

EAC Log
Exact Audio Copy V1.0 beta 3 from 29. August 2011

Отчёт EAC об извлечении, выполненном 26. апреля 2013, 14:51

Heaven & Earth / Dig

Дисковод: HL-DT-STDVDRAM GU40N Adapter: 0 ID: 1

Режим чтения : Достоверность
Использование точного потока : Да
Отключение кэша аудио : Да
Использование указателей C2 : Нет

Коррекция смещения при чтении : 103
Способность читать области Lead-in и Lead-out : Нет
Заполнение пропущенных сэмплов тишиной : Да
Удаление блоков с тишиной в начале и конце : Нет
При вычислениях CRC использовались нулевые сэмплы : Да
Интерфейс : Встроенный Win32-интерфейс для Win NT/2000

Выходной формат : Пользовательский кодировщик
Выбранный битрейт : 128 kBit/s
Качество : Высокий
Добавление ID3-тега : Нет
Утилита сжатия : C:\Program Files (x86)\Easy CD-DA Extractor\ezcddax.exe
Дополнительные параметры : -V -8 -T "Date=%year%" -T "Genre=%genre%" %source%


TOC извлечённого CD

Трек | Старт | Длительность | Начальный сектор | Конечный сектор
---------------------------------------------------------------------
1 | 0:00.00 | 6:15.24 | 0 | 28148
2 | 6:15.24 | 4:01.25 | 28149 | 46248
3 | 10:16.49 | 5:51.42 | 46249 | 72615
4 | 16:08.16 | 4:06.56 | 72616 | 91121
5 | 20:14.72 | 6:12.58 | 91122 | 119079
6 | 26:27.55 | 4:55.72 | 119080 | 141276
7 | 31:23.52 | 4:55.63 | 141277 | 163464
8 | 36:19.40 | 5:36.37 | 163465 | 188701
9 | 41:56.02 | 3:52.63 | 188702 | 206164
10 | 45:48.65 | 4:19.15 | 206165 | 225604
11 | 50:08.05 | 3:48.31 | 225605 | 242735
12 | 53:56.36 | 4:27.02 | 242736 | 262762


Характеристики диапазона извлечения и сообщения об ошибках

Выбранный диапазон

Имя файла C:\Users\workutagin\Desktop\Heaven & Earth - Dig.wav

Пиковый уровень 98.8 %
Скорость извлечения 2.1 X
Качество диапазона 100.0 %
CRC теста 115291BB
CRC копии 115291BB
Копирование... OK

Ошибок не произошло


AccurateRip: сводка

Трек 1 отсутствует в базе данных
Трек 2 отсутствует в базе данных
Трек 3 отсутствует в базе данных
Трек 4 отсутствует в базе данных
Трек 5 отсутствует в базе данных
Трек 6 отсутствует в базе данных
Трек 7 отсутствует в базе данных
Трек 8 отсутствует в базе данных
Трек 9 отсутствует в базе данных
Трек 10 отсутствует в базе данных
Трек 11 отсутствует в базе данных
Трек 12 отсутствует в базе данных

Ни одного трека нет в базе AccurateRip

Конец отчёта

==== Контрольная сумма отчёта C1ADD95C6C50D73D2720B1AC23DD51065022730E9CA48EAB55B1760612FF7325 ====


Many thanks to the original uploader: Kikel/-Jolly Roger-

**********
Download: LOSSLESS

Uploaded | Depositfiles | Turbobit

**********
Download: MP3

Uploaded | Depositfiles | Turbobit
ADVERTISING » Click here to download Ebooks/Magazines for free « ADVERTISING


No comments for the news