Loading...

AC/DC - Stiff Upper Lip (2000) [The AC/DC Remasters 2004]

Posted By : flac jacket | Date : 03 Sep 2012 03:00:57 | Comments : 5 |
|



AC/DC - Stiff Upper Lip (2000) [The AC/DC Remasters 2004]
EAC Secure Rip | FLAC (Image + Cue + Log) - 361 MB | Complete Scans (Jpeg 600 dpi) - 323 MB | MP3 (CBR320 Kbps) - 117 MB
Rock, Hard Rock | Columbia Records | 88697 08290 2 | 47:26 minutes | 5% WinRar Recovery | Hosted on: FilePost

Stiff Upper Lip is the 14th Australian and 13th international studio album by Australian hard rock band AC/DC; it was released in February 2000. The album was recorded at The Warehouse Studio in Vancouver, British Columbia and mastered at Sterling Sound in New York City. The album was produced by George Young, older brother of Malcolm and Angus Young. The three singles to be released from it were the title track, "Safe in New York City", and "Satellite Blues". These three songs plus "Meltdown" were played live on the subsequent world tour.

Stiff Upper Lip, AC/DC's 15th studio album, may not reach the heights of Back in Black or Highway to Hell, but it delivers strongly and satisfyingly. It's the record that the highly touted, Rick Rubin-produced Ballbreaker should have been: a simple, addictive, hard album, bursting with bold riffs and bolstered by a crunching, thrillingly visceral sound. Sure, there are absolutely no new ideas, but that's the point. AC/DC know their strengths and they embrace them. And why shouldn't they? Nobody writes a better riff than Malcolm and Angus Young; each song has a riff so catchy, it feels like you've heard it for years. Is there anything earth-shaking? Hardly, but it's largely terrific nonetheless, just because AC/DC are so good at what they do. It's simple music, to be sure, but it's unassumingly musical and, in a way rather smart. If making music like this was really that easy, why can't anybody else do it this well? Some bands are capable of knocking out one record like this -- one, maybe two. AC/DC do it nearly every time out. They've never really stretched, yet that's why they have one of the most reliable catalogs in rock & roll. When you put on one of their records, you know what you're in for, and they always deliver. With Stiff Upper Lip, they're not at classic status, but they're still top-notch. This may not be the first AC/DC record for a collection, but once you're into their scene, it's a fine place to be. Reviewed by Stephen Thomas Erlewine allmusic.com


EAC Log
Exact Audio Copy V1.0 beta 2 from 29. April 2011

EAC extraction logfile from 2. September 2012, 16:02

AC/DC / Stiff Upper Lip [2004 Sony Remaster]

Used drive : HL-DT-STDVDRAM GH60N Adapter: 0 ID: 1

Read mode : Secure
Utilize accurate stream : Yes
Defeat audio cache : Yes
Make use of C2 pointers : No

Read offset correction : 667
Overread into Lead-In and Lead-Out : No
Fill up missing offset samples with silence : Yes
Delete leading and trailing silent blocks : No
Null samples used in CRC calculations : Yes
Used interface : Native Win32 interface for Win NT & 2000

Used output format : User Defined Encoder
Selected bitrate : 1024 kBit/s
Quality : High
Add ID3 tag : No
Command line compressor : C:\Program Files (x86)\Exact Audio Copy\Flac\flac.exe
Additional command line options : -V -8 -T "artist=%albumartist%" -T "title=%title%" -T "album=%albumtitle%" -T "date=%year%" -T "genre=%genre%" -T

"tracknumber=%tracknr%" %source%


TOC of the extracted CD

Track | Start | Length | Start sector | End sector
---------------------------------------------------------
1 | 0:00.00 | 3:35.10 | 0 | 16134
2 | 3:35.10 | 3:41.25 | 16135 | 32734
3 | 7:16.35 | 3:56.30 | 32735 | 50464
4 | 11:12.65 | 3:59.10 | 50465 | 68399
5 | 15:12.00 | 3:59.15 | 68400 | 86339
6 | 19:11.15 | 3:41.37 | 86340 | 102951
7 | 22:52.52 | 4:02.13 | 102952 | 121114
8 | 26:54.65 | 3:46.50 | 121115 | 138114
9 | 30:41.40 | 3:51.70 | 138115 | 155509
10 | 34:33.35 | 4:02.57 | 155510 | 173716
11 | 38:36.17 | 4:36.43 | 173717 | 194459
12 | 43:12.60 | 4:13.30 | 194460 | 213464


Range status and errors

Selected range

Filename C:\EAC\ACDC - (2000) Stiff Upper Lip\AC,DC - Stiff Upper Lip [2004 Sony Remaster].wav

Peak level 100.0 %
Extraction speed 1.8 X
Range quality 100.0 %
Test CRC C3F355D3
Copy CRC C3F355D3
Copy OK

No errors occurred


AccurateRip summary

Track 1 accurately ripped (confidence 4) [A49B0632] (AR v2)
Track 2 accurately ripped (confidence 4) [71171E6D] (AR v2)
Track 3 accurately ripped (confidence 4) [A6BD9CC6] (AR v2)
Track 4 accurately ripped (confidence 4) [1E1258AD] (AR v2)
Track 5 accurately ripped (confidence 4) [D2A61691] (AR v2)
Track 6 accurately ripped (confidence 4) [6DB61E0A] (AR v2)
Track 7 accurately ripped (confidence 4) [61E89BEF] (AR v2)
Track 8 accurately ripped (confidence 4) [07E11114] (AR v2)
Track 9 accurately ripped (confidence 4) [5CA513DB] (AR v2)
Track 10 accurately ripped (confidence 4) [FB3B8978] (AR v2)
Track 11 accurately ripped (confidence 4) [B2A1143E] (AR v2)
Track 12 accurately ripped (confidence 4) [5EAF3FB6] (AR v2)

All tracks accurately ripped

End of status report

==== Log checksum C4E10D00D97E59C3C29BF089A613D53402D53A6484BD1E0C2F8E4326052DB7D9 ====


01-Stiff Upper Lip
02-Meltdown
03-House Of Jazz
04-Hold Me Back
05-Safe In New York City
06-Can't Stand Still
07-Can't Stop Rock 'N' Roll
08-Satellite Blues
09-Damned
10-Come And Get It
11-All Screwed Up
12-Give It Up


Album Released on February 28, 2000
Remaster Released on April 17, 2004


DR Log
foobar2000 1.1.7 / Dynamic Range Meter 1.1.0
log date: 2012-09-02 18:05:05

--------------------------------------------------------------------------------
Analyzed: AC/DC / Stiff Upper Lip [2004 Sony Remaster]
--------------------------------------------------------------------------------

DR Peak RMS Duration Track
--------------------------------------------------------------------------------
DR6 0.00 dB -7.90 dB 3:35 01-Stiff Upper Lip
DR6 0.00 dB -7.38 dB 3:41 02-Meltdown
DR7 0.00 dB -8.03 dB 3:56 03-House Of Jazz
DR7 0.00 dB -8.58 dB 3:59 04-Hold Me Back
DR6 0.00 dB -7.80 dB 3:59 05-Safe In New York City
DR7 0.00 dB -8.73 dB 3:41 06-Can't Stand Still
DR7 0.00 dB -7.90 dB 4:02 07-Can't Stop Rock 'N' Roll
DR6 0.00 dB -7.89 dB 3:47 08-Satellite Blues
DR6 0.00 dB -7.96 dB 3:52 09-Damned
DR6 0.00 dB -8.16 dB 4:03 10-Come And Get It
DR6 0.00 dB -7.78 dB 4:37 11-All Screwed Up
DR6 0.00 dB -7.59 dB 4:13 12-Give It Up
--------------------------------------------------------------------------------

Number of tracks: 12
Official DR value: DR6

Samplerate: 44100 Hz
Channels: 2
Bits per sample: 16
Bitrate: 1010 kbps
Codec: FLAC
================================================================================



Ripped and Scanned from the Stadium Studios Library September 2012
5% WinRar Recovery

ADVERTISING » Click here to download Ebooks/Magazines for free « ADVERTISING


Posted By: gonzalo76 Date: 03 Sep 2012 16:59:45
I have "the rest of the AC/DC remasters" but NOT this one, so thank you VERY much for this upload!!!!!!! (in lossless... of course ;)

DR6... WOW!
Posted By: flac jacket Date: 03 Sep 2012 18:36:16
Thanks for commenting gonzalo76. I agree with your "WOW!" about the DR value. But, it is nice to have to whole collection.
Posted By: FrancyD Date: 03 Sep 2012 20:23:56
Thanks a lot flac jacket for this great post!
Posted By: The_Wolf Date: 03 Sep 2012 21:12:20
THANK YOU flac jacket for sharing this Album!
Posted By: rockinmississippi Date: 28 Oct 2013 19:05:14
Too bad this link is dead. I have all the George Marino Remasters EXCEPT this one. I can't seem to find it anywhere!