Loading...

Great White - The Best Of 1986-1992 (1993)

Posted By : thingska | Date : 09 Jul 2010 01:44:33 | Comments : 1 |
|



Great White - The Best Of 1986-1992 (1993)
1CD | ЕАС-Rip | FLAC-image +cue +log +SCANS | November 2, 1993 | 404,23 Mb
Genre: Rock, Hard Rock | RAR 3% Rec. | Label: Capitol
Hotfile, Turbobit, Sharingmatrix


It's rare today to find music that's both powerful and intelligible. Great White are one of the most under-rated bands that helped shape the "metal" sound of the 80's who are still serving up new albums in the 90's, to be enjoyed in the auditory "pallet," much like a very fine wine, and bringing to the forefront of my own music collection a west coast sound that differs from all the rest. Treat yourself to powerful rockers, and mellow rock-ballads. As evidenced by their staying power in the music scene, Great White will surely catch up on the songs they missed in this collection with a follow-up "Best Of II," and, if not, well... This collection is an excellent choice for the half-hearted fan, you know, those not really sure if it's cool to like Great White. TRUST ME, IT'S COOL TO LIKE 'EM. They truly are Great. Thanks Guys...



Tracklist:

01. Step On You
02. All Over Now
03. Save Your Love
04. House of Broken Love
05. Big Goodbye
06. Rock Me
07. Face The Day
08. Old Rose Motel
09. Once Bitten Twice Shy
10. Afterglow

EAC LOG
Exact Audio Copy V0.99 prebeta 4 from 23. January 2008

Отчёт EAC об извлечении, выполненном 24. апреля 2009, 13:13

Great White / The Best Of Great White 1986-1992

Дисковод: Optiarc DVD RW AD-7191S Adapter: 1 ID: 0

Режим чтения : Достоверность
Использование точного потока : Да
Отключение кэша аудио : Да
Использование указателей C2 : Нет

Коррекция смещения при чтении : 6
Способность читать области Lead-in и Lead-out : Нет
Заполнение пропущенных сэмплов тишиной : Да
Удаление блоков с тишиной в начале и конце : Нет
При вычислениях CRC использовались нулевые сэмплы : Да
Интерфейс : Встроенный Win32-интерфейс для Win NT/2000

Выходной формат : Пользовательский кодировщик
Выбранный битрейт : 768 kBit/s
Качество : Высокий
Добавление ID3-тэга : Нет
Утилита сжатия : d:\Programs\Exact Audio Copy\FLAC\FLAC.EXE
Дополнительные параметры : -6 -V -T "ARTIST=%a" -T "TITLE=%t" -T "ALBUM=%g" -T "DATE=%y" -T "TRACKNUMBER=%n" -T "GENRE=%m" -T "COMMENT=%e" %s -o %d

TOC извлечённого CD

Трек | Старт | Длительность | Начальный сектор | Конечный сектор
---------------------------------------------------------------------
1 | 0:00.33 | 5:51.07 | 33 | 26364
2 | 5:51.40 | 4:23.60 | 26365 | 46149
3 | 10:15.25 | 4:33.68 | 46150 | 66692
4 | 14:49.18 | 6:00.10 | 66693 | 93702
5 | 20:49.28 | 5:58.12 | 93703 | 120564
6 | 26:47.40 | 7:18.20 | 120565 | 153434
7 | 34:05.60 | 7:03.35 | 153435 | 185194
8 | 41:09.20 | 7:23.70 | 185195 | 218489
9 | 48:33.15 | 5:25.48 | 218490 | 242912
10 | 53:58.63 | 5:48.35 | 242913 | 269047

Характеристики диапазона извлечения и сообщения об ошибках

Выбранный диапазон

Имя файла C:\Documents and Settings\Eddie\Рабочий стол\lossless_rip\Great White - The Best Of Great White 1986-1992.wav

Пиковый уровень 100.0 %
Качество диапазона 99.9 %
CRC теста 445D8723
CRC копии 445D8723
Копирование... OK

Ошибок не произошло

AccurateRip: сводка

Трек 1 точное извлечение (доверие 3) [6F30F151]
Трек 2 точное извлечение (доверие 3) [80B754AF]
Трек 3 точное извлечение (доверие 3) [5CFF4B41]
Трек 4 точное извлечение (доверие 3) [EB30A84E]
Трек 5 точное извлечение (доверие 3) [CE5803F1]
Трек 6 точное извлечение (доверие 3) [F4B08FE8]
Трек 7 точное извлечение (доверие 3) [96F7E1AA]
Трек 8 точное извлечение (доверие 3) [82C4909F]
Трек 9 точное извлечение (доверие 3) [55AE3544]
Трек 10 точное извлечение (доверие 3) [659D537D]

Все треки извлечены точно

Конец отчёта




Download Great White - The Best Of 1986-1992 (1993):




Thanks to the original Publicist "Ed(die)_Hunter"

ADVERTISING » Click here to download Ebooks/Magazines for free « ADVERTISING


Posted By: hellare Date: 06 Jan 2014 18:28:55
Yes. I would like it, but "UrPlayZone.com" asks for a credit card I don't have and some more bla, bla. Any better upload? Thanks