Loading...

Simon & Garfunkel - Live 1969 [2000]

Posted By : MacGuffin | Date : 07 Dec 2009 04:55:35 | Comments : 5 |
|



Simon & Garfunkel - Live 1969 [2009]
Rock/Folk-Rock | FLAC + MP3 | EAC / LAME 3.98 V0 (VBR) | LOG+ CUE | 2 CDs | FLAC: 319 MB; MP3: 86 MB

When Simon & Garfunkel went out on the road in November of 1969 on what would be their last tour together for 13 years, the duo's popularity rivaled that of The Beatles. They embarked on the tour soon after completing Bridge Over Troubled Water, the album that would be their crowning glory and biggest seller. Bridge wouldn't be released until January 21, 1970, so their sets contained several songs from that album that the fans who packed their shows would be hearing for the first time. Several shows on the '69 tour were recorded in anticipation of what was earmarked to be their sixth album, the follow-up to Bridge. That live album never came to be and Simon & Garfunkel soon ended that early stage of their partnership. At these final shows Simon & Garfunkel gave performances that are as magnificent as any they ever offered. This set contains both acoustic and full band recordings from the tour, including an incredible version of 'Bridge Over Troubled Water' along with inspired versions of all their big hits.


1. Homeward Bound
2. At The Zoo
3. The 59th Street Bridge Song (Feelin' Groovy)
4. Song For The Asking
5. For Emily, Whenever I May Find Her
6. Scarborough Fair/Canticle
7. Mrs. Robinson
8. The Boxer
9. Why Don't You Write Me
10. So Long, Frank Lloyd Wright
11. That Silver-Haired Daddy Of Mine
12. Bridge Over Troubled Water
13. The Sound Of Silence
14. I Am A Rock
15. Old Friends/Bookends Theme
16. Leaves That Are Green
17. Kathy's Song

EAC LOG
EAC extraction logfile from 13. April 2008, 11:37 for CD
Simon & Garfunkel / Live 1969

Used drive : HP DVD Writer 640c Adapter: 3 ID: 0
Read mode : Secure with NO C2, accurate stream, disable cache
Read offset correction : 618
Overread into Lead-In and Lead-Out : No

Used output format : C:\Program Files\Exact Audio Copy\flac.exe (User Defined Encoder)
320 kBit/s
Additional command line options : -V -8 -T "artist=%a" -T "title=%t" -T "album=%g" -T "date=%y" -T "tracknumber=%n" -T "genre=%m" %s

Other options :
Fill up missing offset samples with silence : Yes
Delete leading and trailing silent blocks : No
Installed external ASPI interface


Track 1
Filename C:\FLAC\01 - Homeward Bound.wav

Pre-gap length 0:00:02.00

Peak level 99.7 %
Track quality 100.0 %
Test CRC D5981C1C
Copy CRC D5981C1C
Copy OK

Track 2
Filename C:\FLAC\02 - At the Zoo.wav

Peak level 95.6 %
Track quality 99.9 %
Test CRC CBF803D5
Copy CRC CBF803D5
Copy OK

Track 3
Filename C:\FLAC\03 - The 59th Street Bridge Song (Feelin' Groovy).wav

Peak level 96.0 %
Track quality 100.0 %
Test CRC 23568209
Copy CRC 23568209
Copy OK

Track 4
Filename C:\FLAC\04 - Song for the Asking.wav

Peak level 82.3 %
Track quality 99.9 %
Test CRC 4F53B48E
Copy CRC 4F53B48E
Copy OK

Track 5
Filename C:\FLAC\05 - For Emily, Whenever I May Find Her.wav

Peak level 67.4 %
Track quality 100.0 %
Test CRC A2AE1957
Copy CRC A2AE1957
Copy OK

Track 6
Filename C:\FLAC\06 - Scarborough Fair - Canticle.wav

Peak level 71.5 %
Track quality 100.0 %
Test CRC 1130C3E4
Copy CRC 1130C3E4
Copy OK

Track 7
Filename C:\FLAC\07 - Mrs. Robinson.wav

Pre-gap length 0:00:01.86

Peak level 99.5 %
Track quality 99.9 %
Test CRC AE886C01
Copy CRC AE886C01
Copy OK

Track 8
Filename C:\FLAC\08 - The Boxer.wav

Peak level 100.0 %
Track quality 100.0 %
Test CRC 36A40148
Copy CRC 36A40148
Copy OK

Track 9
Filename C:\FLAC\09 - Why Don't You Write Me.wav

Peak level 93.0 %
Track quality 100.0 %
Test CRC 1345C3ED
Copy CRC 1345C3ED
Copy OK

Track 10
Filename C:\FLAC\10 - So Long, Frank Lloyd Wright.wav

Peak level 75.1 %
Track quality 99.9 %
Test CRC 0AA5331B
Copy CRC 0AA5331B
Copy OK

Track 11
Filename C:\FLAC\11 - That Silver-Haired Daddy of Mine.wav

Peak level 91.3 %
Track quality 100.0 %
Test CRC 46D63535
Copy CRC 46D63535
Copy OK

Track 12
Filename C:\FLAC\12 - Bridge Over Troubled Water.wav

Peak level 90.9 %
Track quality 100.0 %
Test CRC 5F164462
Copy CRC 5F164462
Copy OK

Track 13
Filename C:\FLAC\13 - The Sound of Silence.wav

Peak level 100.0 %
Track quality 100.0 %
Test CRC 606C0107
Copy CRC 606C0107
Copy OK

Track 14
Filename C:\FLAC\14 - I Am a Rock.wav

Peak level 99.1 %
Track quality 100.0 %
Test CRC EE6B9E63
Copy CRC EE6B9E63
Copy OK

Track 15
Filename C:\FLAC\15 - Old Friends - Bookends.wav

Peak level 96.2 %
Track quality 100.0 %
Test CRC 5E04D2FA
Copy CRC 5E04D2FA
Copy OK

Track 16
Filename C:\FLAC\16 - Leaves That Are Green.wav

Peak level 86.5 %
Track quality 100.0 %
Test CRC 25037BCB
Copy CRC 25037BCB
Copy OK

Track 17
Filename C:\FLAC\17 - Kathy's Song.wav

Peak level 77.9 %
Track quality 100.0 %
Test CRC 0F54FB60
Copy CRC 0F54FB60
Copy OK

No errors occured


End of status report


# Audio CD (April 14, 2009)
# Original Release Date: May 8, 2007
# Number of Discs: 1
# Format: Live
# Label: Sony Legacy


Download album:
Lossless / FLAC
Part 1 | Part 2 | Part 3 | Part 4

MP3 Lossy - V0 (VBR)
Part 1

ADVERTISING » Free Fast Download! « ADVERTISING


Posted By: frav10 Date: 07 Dec 2009 06:37:36
Thank's from Israel.
Posted By: eisler444 Date: 07 Dec 2009 10:55:15
Спасибо!!!
Posted By: reayx5 Date: 09 Dec 2009 05:59:07
Thank you. Chris.
Posted By: Nigelxxx Date: 10 Dec 2009 23:42:45
Thank you very kindly.
Posted By: LezDawson Date: 02 May 2010 10:17:11
WOW! I can't believe I didn't even know this album existed until a minute ago (saw it on Wiki) so a quick Avax search and hey presto! Many thanks :)

If anyone's interested, I posted the 1967 Live album a while back, links still active. Get it here:
http://avaxhome.ws/music/simon_garfunkel_live_1967_new_york_daverip_rapidshare.html