Loading...

John Mellencamp - Scarecrow (1985) [MFSL UDCD-II 604]

Posted By : Goodspeed | Date : 24 Jun 2010 12:55:24 | Comments : 6 |
|



John Mellencamp - Scarecrow (1985) [MFSL UDCD-II 604]
EAC+LOG+CUE | Flac (image) | 1 CD | 288 MB | artwork @ 600dpi | FP + UL | 3% recovery
Rock | Release date: June 1985 | PolyGram/ Riva Music Inc. | Time 41:06 | Catalog # 0 15775 16042 2

What makes a great album a best album are the songs that penetrate your soul but not the radio charts. The B-siders. Scarecrow songs with the simple grace of "Minutes to Memories" and "Between and Laugh and a Tear" complement the hit melodies that made my high school soundtrack. I bought the vinyl in '85 and the CD in '95 and the songs are never worn, but always fresh and revealing. Like albums such as Van's Moondance, Bruce's Born to Run, or U2's Joshua Tree, Scarecrow is a rock and roll masterpiece. And while JM is still producing great music, Scarecrow is his best to date. It's more than an Amazon essential recording. It's one of rock's truly finest.


Tracklist:
01. Rain on the Scarecrow
02. Grandma's Theme
03. Small Town
04. Minutes to Memories
05. Lonely Ol' Night
06. The Face of the Nation
07. Justice and Independence '85
08. Between a Laugh and a Tear
09. Rumbleseat
10. You've Got to Stand for Somethin'
11. R.O.C.K. in the U.S.A.
12. The Kind of Fella I Am



Personnel:
John Mellencamp - vocals
Larry Crane - accoustic guitar, electric guitar, backing vocals
Kenny Aronoff - drums, tambourine, vibes, backing vocals
Mike Wanchic - electric guitar, vocals on 'Cameo Shadow'
Toby Meyers - electric guitar, backing vocals

Guest musicians:
John Cascella - keyboards
Rickie Lee Jones - vocals on 'Between a Laugh and a Tear'
Sarah Flint - background vocals on 'R.O.C.K. in the U.S.A.'
Laura Mellencamp - lead vocal on 'Grandma's Theme'
Mimi Maples - backing vocals on 'Minutes To Memories'
A. Jack Wilkins - saxophone on Justice and Independence '85'
Richard Fanning - trumpet on Justice and Independence '85'

EAC Log
Exact Audio Copy V1.0 beta 3 from 29. August 2011

EAC extraction logfile from 2. March 2014, 12:29

John Mellencamp / Scarecrow (MFSL)

Used drive : _NEC DVD_RW ND-2500A Adapter: 3 ID: 1

Read mode : Secure
Utilize accurate stream : Yes
Defeat audio cache : Yes
Make use of C2 pointers : No

Read offset correction : 48
Overread into Lead-In and Lead-Out : No
Fill up missing offset samples with silence : Yes
Delete leading and trailing silent blocks : No
Null samples used in CRC calculations : Yes
Used interface : Native Win32 interface for Win NT & 2000

Used output format : User Defined Encoder
Selected bitrate : 768 kBit/s
Quality : High
Add ID3 tag : No
Command line compressor : C:\Program Files\Exact Audio Copy\FLAC\FLAC.EXE
Additional command line options : -6 -V -T "ARTIST=%artist%" -T "TITLE=%title%" -T "ALBUM=%albumtitle%" -T "DATE=%year%" -T "TRACKNUMBER=%tracknr%" -T "GENRE=%genre%" -T "COMMENT=%comment%" -T "BAND=%albuminterpret%" -T "ALBUMARTIST=%albuminterpret%" -T "COMPOSER=%composer%" %haslyrics%--tag-from-file=LYRICS="%lyricsfile%"%haslyrics% -T "DISCNUMBER=%cdnumber%" -T "TOTALDISCS=%totalcds%" -T "TOTALTRACKS=%numtracks%" %hascover%--picture="%coverfile%"%hascover% %source% -o %dest%


TOC of the extracted CD

Track | Start | Length | Start sector | End sector
---------------------------------------------------------
1 | 0:00.37 | 3:46.68 | 37 | 17054
2 | 3:47.30 | 0:55.50 | 17055 | 21229
3 | 4:43.05 | 3:42.30 | 21230 | 37909
4 | 8:25.35 | 4:12.42 | 37910 | 56851
5 | 12:38.02 | 3:46.13 | 56852 | 73814
6 | 16:24.15 | 3:14.47 | 73815 | 88411
7 | 19:38.62 | 3:32.68 | 88412 | 104379
8 | 23:11.55 | 4:31.70 | 104380 | 124774
9 | 27:43.50 | 2:59.00 | 124775 | 138199
10 | 30:42.50 | 4:32.70 | 138200 | 158669
11 | 35:15.45 | 2:54.67 | 158670 | 171786
12 | 38:10.37 | 2:56.13 | 171787 | 184999


Range status and errors

Selected range

Filename C:\EAC Extractions\John Mellencamp - Scarecrow (MFSL).wav

Peak level 100.0 %
Extraction speed 5.6 X
Range quality 100.0 %
Test CRC A2376292
Copy CRC A2376292
Copy OK

No errors occurred


AccurateRip summary

Track 1 accurately ripped (confidence 25) [FB16429D] (AR v2)
Track 2 accurately ripped (confidence 25) [0CA7FF67] (AR v2)
Track 3 accurately ripped (confidence 25) [E2DA11A5] (AR v2)
Track 4 accurately ripped (confidence 25) [5EB960BA] (AR v2)
Track 5 accurately ripped (confidence 25) [5D1B1C9E] (AR v2)
Track 6 accurately ripped (confidence 25) [2DD6E893] (AR v2)
Track 7 accurately ripped (confidence 25) [31037BD2] (AR v2)
Track 8 accurately ripped (confidence 25) [A374FE2A] (AR v2)
Track 9 accurately ripped (confidence 25) [BC6A4BDF] (AR v2)
Track 10 accurately ripped (confidence 25) [06E8AB14] (AR v2)
Track 11 accurately ripped (confidence 25) [11CDD496] (AR v2)
Track 12 accurately ripped (confidence 25) [D0DF1809] (AR v2)

All tracks accurately ripped

End of status report

==== Log checksum 5A851C23FA9AD824301D1D2EF665D4BEBB7C37B692286119A3D5150565DB1BB0 ====

!! New links added as per 02-03-2014 !!

Filepost:

Part 1
Part 2

Uploaded:

Part 1
Part 1

password: Goodspeed
ADVERTISING » Very Fast Download! « ADVERTISING


Posted By: wormwood Date: 24 Jun 2010 13:39:31
Thanks, superb!!
Posted By: Laserman59 Date: 24 Jun 2010 22:24:19
This is a great classic. Thank you Goodspeed for sharing this MFSL edition. :-)
Posted By: leozaurus Date: 25 Jun 2010 13:23:46
Thanks for early Mellencamp.
Posted By: DrBanan Date: 27 Jun 2010 18:05:17
You've got your FLAC and WAV cuesheets mixed-up. Otherwise a fine upload!
Posted By: wc2 Date: 14 Jul 2010 13:26:03
Great music, and thanks for the hotfile links - the best server nowadays... Thanks!
Posted By: dickytimms Date: 03 Mar 2014 16:26:03
Thank you for new links Goodspeed. ;D