Loading...

Bob Dylan - Bob Dylan's Greatest Hits Vol. II (1971) [2013 Audio Fidelity SACD AFZ2 145]

Posted By : flac jacket | Date : 06 Jun 2013 06:40:35 | Comments : 20 |
|



Bob Dylan - Bob Dylan's Greatest Hits Vol. II (1971) [2013 Audio Fidelity SACD AFZ2 145]
EAC Secure Rip | FLAC (Image + Cue + Log) - 512 MB | Complete Scans (Jpeg 600 dpi) - 177 MB | MP3 (CBR320 Kbps) - 206 MB
Rock, Folk Rock | Audio Fidelity | AFZ2 145 | 79:05 minutes | 5% WinRar Recovery | Hosted on: Uploaded
CONTAINS CD LAYER ONLY

Bob Dylan's Greatest Hits Vol. II , also known as More Bob Dylan Greatest Hits, was the second compilation album released by Bob Dylan. With Dylan not expected to release any new material for an extended period of time, CBS Records president Clive Davis proposed issuing a double LP compilation of older material. Dylan agreed, compiling it himself and suggesting that the package include a full side of unreleased tracks from his archives. After submitting a set of excerpts from the The Basement Tapes that Davis found unsatisfactory, Dylan returned to the studio in September 1971 to recut several Basement songs, with Happy Traum providing backup.

The final package included one previously uncollected single, "Watching the River Flow", an outtake from the same sessions, "When I Paint My Masterpiece"; one song from Dylan's April 12, 1963 Town Hall concert, "Tomorrow Is a Long Time", and three songs from the September sessions, "I Shall Be Released", "You Ain't Goin' Nowhere", and "Down in the Flood". The remaining tracks were drawn from existing releases.

Where Dylan's first Greatest Hits took its title literally, Greatest Hits, Vol. 2 is a greatest-hits album only in the loosest sense of the term. While the double album does contain several genuine hits -- "Lay Lady Lay," "Tonight I'll Be Staying Here with You," the non-LP "Watching the River Flow" -- it is largely comprised of album tracks that became classics, either through Dylan's own version or through covers. These include "Don't Think Twice, It's All Right," "All I Really Want to Do," "My Back Pages," "Maggie's Farm," "She Belongs to Me," "If Not for You," and "Just Like Tom Thumb's Blues," among many others. There are also various rarities scattered throughout the 21 songs, including a live version of "Tomorrow Is a Long Time" from 1963, a live take of "The Mighty Quinn (Quinn the Eskimo)," and the Basement Tapes songs "I Shall Be Released," "Down in the Flood," and "You Ain't Goin' Nowhere." While some of the cuts may not be immediately familiar to some listeners, Greatest Hits, Vol. 2 in many ways is a more accurate picture of the depth and breadth of Dylan's talents, making it an excellent introduction. And it's not just for casual fans, because the rarities and sequencing are revealing for even devoted Dylan fans. Reviewed by Stephen Thomas Erlewine allmusic.com



EAC Log
Exact Audio Copy V1.0 beta 2 from 29. April 2011

EAC extraction logfile from 29. May 2013, 21:10

Bob Dylan / Bob Dylan's Greatest Hits Vol. II [2013 Audio Fidelity SACD AFZ2 145]

Used drive : HL-DT-STDVDRAM GH60N Adapter: 0 ID: 1

Read mode : Secure
Utilize accurate stream : Yes
Defeat audio cache : Yes
Make use of C2 pointers : No

Read offset correction : 667
Overread into Lead-In and Lead-Out : No
Fill up missing offset samples with silence : Yes
Delete leading and trailing silent blocks : No
Null samples used in CRC calculations : Yes
Used interface : Native Win32 interface for Win NT & 2000

Used output format : User Defined Encoder
Selected bitrate : 1024 kBit/s
Quality : High
Add ID3 tag : No
Command line compressor : C:\Program Files (x86)\Exact Audio Copy\Flac\flac.exe
Additional command line options : -V -5 -T "artist=%albumartist%" -T "title=%title%" -T "album=%albumtitle%" -T "date=%year%" -T "genre=%genre%"

-T "tracknumber=%tracknr%" %source%


TOC of the extracted CD

Track | Start | Length | Start sector | End sector
---------------------------------------------------------
1 | 0:00.00 | 3:36.61 | 0 | 16260
2 | 3:36.61 | 3:41.07 | 16261 | 32842
3 | 7:17.68 | 3:19.28 | 32843 | 47795
4 | 10:37.21 | 7:09.25 | 47796 | 79995
5 | 17:46.46 | 2:37.56 | 79996 | 91826
6 | 20:24.27 | 4:05.02 | 91827 | 110203
7 | 24:29.29 | 4:25.15 | 110204 | 130093
8 | 28:54.44 | 3:55.10 | 130094 | 147728
9 | 32:49.54 | 3:23.71 | 147729 | 163024


Range status and errors

Selected range

Filename C:\EAC\Bob Dylan - (1971) Bob Dylan's Greatest Hits Vol. II [2013 Audio Fidelity SACD AFZ2 145]\CD1\Bob Dylan - Bob Dylan's

Greatest Hits Vol. II [2013 Audio Fidelity SACD AFZ2 145].wav

Peak level 97.2 %
Extraction speed 1.8 X
Range quality 100.0 %
Test CRC 547E0C57
Copy CRC 547E0C57
Copy OK

No errors occurred


AccurateRip summary

Track 1 not present in database
Track 2 not present in database
Track 3 not present in database
Track 4 not present in database
Track 5 not present in database
Track 6 not present in database
Track 7 not present in database
Track 8 not present in database
Track 9 not present in database

None of the tracks are present in the AccurateRip database

End of status report

==== Log checksum FD7CB1F9CFFC7993F16EA4E656FF406EC8024E3784F25D238690D622DADC37EC ====

______________________________________________________________________________________________________

Exact Audio Copy V1.0 beta 2 from 29. April 2011

EAC extraction logfile from 4. June 2013, 13:18

Bob Dylan / Bob Dylan's Greatest Hits Vol. II [2013 Audio Fidelity SACD AFZ2 145] 2

Used drive : HL-DT-STDVDRAM GH60N Adapter: 0 ID: 1

Read mode : Secure
Utilize accurate stream : Yes
Defeat audio cache : Yes
Make use of C2 pointers : No

Read offset correction : 667
Overread into Lead-In and Lead-Out : No
Fill up missing offset samples with silence : Yes
Delete leading and trailing silent blocks : No
Null samples used in CRC calculations : Yes
Used interface : Native Win32 interface for Win NT & 2000

Used output format : User Defined Encoder
Selected bitrate : 1024 kBit/s
Quality : High
Add ID3 tag : No
Command line compressor : C:\Program Files (x86)\Exact Audio Copy\Flac\flac.exe
Additional command line options : -V -5 -T "artist=%albumartist%" -T "title=%title%" -T "album=%albumtitle%" -T "date=%year%" -T "genre=%genre%"

-T "tracknumber=%tracknr%" %source%


TOC of the extracted CD

Track | Start | Length | Start sector | End sector
---------------------------------------------------------
1 | 0:00.00 | 2:51.17 | 0 | 12841
2 | 2:51.17 | 2:33.06 | 12842 | 24322
3 | 5:24.23 | 2:47.62 | 24323 | 36909
4 | 8:12.10 | 5:29.51 | 36910 | 61635
5 | 13:41.61 | 6:53.01 | 61636 | 92611
6 | 20:34.62 | 2:42.63 | 92612 | 104824
7 | 23:17.50 | 4:18.23 | 104825 | 124197
8 | 27:35.73 | 3:05.69 | 124198 | 138141
9 | 30:41.67 | 3:26.48 | 138142 | 153639
10 | 34:08.40 | 3:05.70 | 153640 | 167584
11 | 37:14.35 | 2:48.01 | 167585 | 180185
12 | 40:02.36 | 2:48.19 | 180186 | 192804


Range status and errors

Selected range

Filename C:\EAC\Bob Dylan - (1971) Bob Dylan's Greatest Hits Vol. II [2013 Audio Fidelity SACD AFZ2 145]\CD2\Bob Dylan - Bob Dylan's

Greatest Hits Vol. II [2013 Audio Fidelity SACD AFZ2 145] 2.wav

Peak level 96.0 %
Extraction speed 1.7 X
Range quality 99.9 %
Test CRC D009E586
Copy CRC D009E586
Copy OK

No errors occurred


AccurateRip summary

Track 1 not present in database
Track 2 not present in database
Track 3 not present in database
Track 4 not present in database
Track 5 not present in database
Track 6 not present in database
Track 7 not present in database
Track 8 not present in database
Track 9 not present in database
Track 10 not present in database
Track 11 not present in database
Track 12 not present in database

None of the tracks are present in the AccurateRip database

End of status report

==== Log checksum 27B1B7250EC65252584B6D0E00523614D30A75E8810813298CC4E9B71F31CFF8 ====


Track Listing:

Disc 1:

01. Watching The River Flow
02. Don't Think Twice, It's All Right
03. Lay Lady Lay
04. Stuck Inside Of Mobile With The Memphis Blues Again
05. I'll Be Your Baby Tonight
06. All I Really Want To Do
07. My Back Pages
08. Maggies Farm
09. Tonight I'll Be Staying Here With You

Disc 2:

01. She Belongs To Me
02. All Along The Watchtower
03. The Mighty Quinn (Quinn, The Eskimo)
04. Just Like Tom Thumb's Blues
05. A Hard Rain's A-Gonna Fall
06. If Not For You
07. It's All Over Now, Baby Blue
08. Tomorrow Is A Long Time
09. When I Paint My Masterpiece
10. I Shall Be Released
11. You Ain't Goin' Nowhere
12. Down In The Flood


Album Released: November 17, 1971
Audio Fidelity SACD Released: June 4, 2013

Mastered for this SACD by: Steve Hoffman at Stephan Marsh Mastering


DR Log
foobar2000 1.1.7 / Dynamic Range Meter 1.1.0
log date: 2013-06-05 23:31:25

--------------------------------------------------------------------------------
Analyzed: Bob Dylan / Bob Dylan's Greatest Hits Vol. II [2013 Audio Fidelity SACD AFZ2 145]
--------------------------------------------------------------------------------

DR Peak RMS Duration Track
--------------------------------------------------------------------------------
DR12 -0.24 dB -14.66 dB 3:37 01-Watching The River Flow
DR13 -4.16 dB -21.17 dB 3:41 02-Don't Think Twice, It's All Right
DR11 -2.47 dB -17.82 dB 3:19 03-Lay Lady Lay
DR11 -1.33 dB -14.59 dB 7:09 04-Stuck Inside Of Mobile With The Memphis Blues Again
DR12 -0.42 dB -15.54 dB 2:38 05-I'll Be Your Baby Tonight
DR10 -2.57 dB -15.61 dB 4:05 06-All I Really Want To Do
DR10 -2.39 dB -14.67 dB 4:25 07-My Back Pages
DR10 -2.01 dB -14.66 dB 3:55 08-Maggies Farm
DR11 -1.41 dB -14.75 dB 3:24 09-Tonight I'll Be Staying Here With You
--------------------------------------------------------------------------------

Number of tracks: 9
Official DR value: DR11

Samplerate: 44100 Hz
Channels: 2
Bits per sample: 16
Bitrate: 835 kbps
Codec: FLAC
================================================================================



foobar2000 1.1.7 / Dynamic Range Meter 1.1.0
log date: 2013-06-05 23:32:19

--------------------------------------------------------------------------------
Analyzed: Bob Dylan / Bob Dylan's Greatest Hits Vol. II [2013 Audio Fidelity SACD AFZ2 145] 2
--------------------------------------------------------------------------------

DR Peak RMS Duration Track
--------------------------------------------------------------------------------
DR12 -2.71 dB -17.13 dB 2:51 01-She Belongs To Me
DR11 -2.92 dB -16.42 dB 2:33 02-All Along The Watchtower
DR12 -3.28 dB -18.24 dB 2:48 03-The Mighty Quinn (Quinn, The Eskimo)
DR10 -4.22 dB -15.79 dB 5:30 04-Just Like Tom Thumb's Blues
DR11 -3.14 dB -17.96 dB 6:53 05-A Hard Rain's A-Gonna Fall
DR12 -2.82 dB -17.22 dB 2:43 06-If Not For You
DR10 -6.08 dB -18.43 dB 4:18 07-It's All Over Now, Baby Blue
DR12 -1.44 dB -18.36 dB 3:06 08-Tomorrow Is A Long Time
DR12 -0.35 dB -16.27 dB 3:27 09-When I Paint My Masterpiece
DR13 -1.85 dB -19.76 dB 3:06 10-I Shall Be Released
DR12 -3.13 dB -17.35 dB 2:48 11-You Ain't Goin' Nowhere
DR13 -1.49 dB -19.55 dB 2:48 12-Down In The Flood
--------------------------------------------------------------------------------

Number of tracks: 12
Official DR value: DR12

Samplerate: 44100 Hz
Channels: 2
Bits per sample: 16
Bitrate: 810 kbps
Codec: FLAC
================================================================================



Ripped and Scanned from the Stadium Studios Library June 2013
5% WinRar Recovery



ADVERTISING » Free Fast Download! « ADVERTISING


Posted By: plonker Date: 06 Jun 2013 07:44:44
Many thanks for this new AF release !!!
Great job! Also thanks for all of your hard work to bring us such beauties :-D
Posted By: alsoel Date: 06 Jun 2013 08:07:57
Muchísimas Gracias!!! ... Magnífico disco.
Posted By: luckburz Date: 06 Jun 2013 08:33:23
A really great share, my friend. Love the Bob! Also many thanks for Vol. 1!
Posted By: doctor.watson Date: 06 Jun 2013 09:38:03
Very much appreciated! A fantastic new release!
Thank you.
Posted By: JBH69Flyer Date: 06 Jun 2013 11:22:46
Thanks flacjacket!! Wore a cassette recording of this record out on more than one cross-country driving trip. Thanks very much for the re-master!! And also appreciate the link to Volume One which I missed!!
Posted By: v3122 Date: 06 Jun 2013 11:28:32
Thank you very much!
Posted By: avaxphil Date: 06 Jun 2013 14:48:49
Wow, i really can't stand it! Wow! Thanks very much!!!
Posted By: Laserman59 Date: 06 Jun 2013 16:49:00
THANK YOU FJ for sharing this awesome new release. :-)
Posted By: hwy61200 Date: 06 Jun 2013 17:28:03
Great share, flacjacket- many, many thanks!!!
Posted By: oak Date: 06 Jun 2013 18:57:33
Thanks for this share, best wishes!
Posted By: Scorpion40 Date: 06 Jun 2013 19:42:54
Thanks / Gracias
Posted By: Rehabilly Date: 06 Jun 2013 20:54:44
Nothing to add to comments above. THANKS!
Posted By: kwork Date: 07 Jun 2013 00:59:37
Thank you very much!
Posted By: tagens Date: 12 Jun 2013 19:52:31
DEAD LINKS, PLEASE GUYZ CAN SOMEONE THAT GOT IT UPLOAD IT ON MP3 320KBPS ON www.mega.co.nz PLEASE PLEASE. please let me know when is up here. Thanks a million.
Posted By: dickytimms Date: 12 Jun 2013 20:14:05
Thank you again FJ!
Posted By: sandrolenart Date: 14 Jun 2013 01:14:02
Repost again?? Please :(
Posted By: sodamnhappy Date: 02 Jul 2013 12:43:24
So sad I missed this, just adding another request for a re-upload. Thanks for everything!
Posted By: kauwi Date: 03 Aug 2013 19:28:02
please reup - links are dead. thanks!!
Posted By: kauwi Date: 08 Oct 2013 20:44:42
Many Thanks :-) :-) Mr. Flac
Posted By: flac jacket Date: 09 Oct 2013 00:39:05
Reuploaded several times. I think that visiting Avaxhome frequently is necessary if one wants to get all the news.