Loading...

Vasco Rossi - Vivere O Niente (2011)

Posted By : edi1967 | Date : 28 Mar 2011 19:49:35 | Comments : 10 |
|



Vasco Rossi - Vivere O Niente (2011)
EAC Rip | FLAC(image) + CUE + LOG | 1 Cd | 12 Tracks | Full scans | 00:55:48 | 412 Mb + 3% recovery
Mp3 @ 320 Kbps | 1 Cd | 12 Tracks | Full scans | 00:55:48 | 132.14 Mb
Genre: Rock | Label: EMI

Il buon Vasco è sempre lui, o meglio il buon Vasco è tornato. Sembra strano affermare il grande ritorno vedendolo nel video del singolo “Eh Già” invecchiato, accusare in volto i segni dell’età, eppure Vivere O Niente, in uscita il 29 Marzo, è così.
Dopo “Il Mondo Che Vorrei” del 2008 apparso un poco fiacco nonostante le numerose copie vendute questo nuovo album, che abbiamo potuto ascoltare in anteprima rispolvera l’ironia e il sound con cui Vasco esordì nel ’78. La parola ricorrente è vita, il messaggio che traspare è semplice, all’apparenza banale ma in realtà profondo e ben sviluppato attraverso le tredici tracce, si può semplificare con un “chi si ferma è perduto”, emblematica anche la copertina con un Blasco in versione Il Fuggitivo. Si parlava di sound, la premiata ditta Elmi/Ferro/Curreri non tradisce, si passa da tranquille ballate a sonorità chiaramente hard-rock, dove Stef Burns ha piazzato degli assolo da acquolina in bocca. Cos’altro dire se non che anche in Vivere O Niente troviamo nel casting, come al solito stellare, un nome leggendario. Nel brano di apertura “Vivere Non È Facile” alla batteria troviamo infatti Vinnie Colaiuta, una garanzia ai tamburi. Per chi rimpiange gli anni di “Albachiara” “Vado Al Massimo” e “Colpa Di Alfredo” e per chi ha voglia di ascoltare ancora un po’ di rock italico “Vivere O Niente” è imperdibile.

English
Good Vasco is always him, or rather the good Vasco is back. It seems strange to say the great seeing him back in the video for the single "Oh Yeah," aged, accused in the face signs of aging, but Live Free or Nothing, out March 29, it is.
After "The World" in 2008 appeared a little weak in spite of the many copies sold this new album, we were able to preview the irony and dusts off the sound with which Vasco debuted in '78. The applicant's word is life, the message that emerges is simple, seemingly trivial but really deep and well developed through the thirteen tracks, you can simplify with a "he who hesitates is lost", emblematic in the cover with a Blasco version of The Fugitive. There was talk of sound, the company rewarded Helmets / Iron / Curreri not betray, moving from quiet ballads to hard-rock sounds clearly, where Stef Burns has placed solos mouth-watering. What else to say except that we also live in the casting or Nothing, as usual star, a legendary name. In the opening track, "Living Is not Easy" Vinnie Colaiuta on drums are in fact, a guarantee to the drums. For those who regret the years of "Albatross" "Vado Al Massimo" and "Blame Alfredo" and for those who want to listen a little 'rock Italic "Live Free or Nothing" is a must.





EAC Log
Exact Audio Copy V1.0 beta 1 from 15. November 2010

EAC extraction logfile from 29. March 2011, 15:00

Vasco Rossi / Vivere o niente

Used drive : TOSHIBA DVD-ROM SD-M1302 Adapter: 1 ID: 0

Read mode : Secure
Utilize accurate stream : Yes
Defeat audio cache : Yes
Make use of C2 pointers : Yes

Combined read/write offset correction : 0
Overread into Lead-In and Lead-Out : No
Fill up missing offset samples with silence : Yes
Delete leading and trailing silent blocks : No
Null samples used in CRC calculations : No
Used interface : Native Win32 interface for Win NT & 2000

Used output format : User Defined Encoder
Selected bitrate : 768 kBit/s
Quality : High
Add ID3 tag : No
Command line compressor : C:\Programmi\Exact Audio Copy\FLAC\FLAC.EXE
Additional command line options : -6 -V -T "ARTIST=%a" -T "TITLE=%t" -T "ALBUM=%g" -T "DATE=%y" -T "TRACKNUMBER=%n" -T "GENRE=%m" -T "COMMENT=%e" %j--picture="%i"%j %s -o %d


TOC of the extracted CD

Track | Start | Length | Start sector | End sector
---------------------------------------------------------
1 | 0:00.00 | 4:54.61 | 0 | 22110
2 | 4:54.61 | 3:54.09 | 22111 | 39669
3 | 8:48.70 | 4:52.59 | 39670 | 61628
4 | 13:41.54 | 3:28.40 | 61629 | 77268
5 | 17:10.19 | 5:00.55 | 77269 | 99823
6 | 22:10.74 | 3:45.63 | 99824 | 116761
7 | 25:56.62 | 4:13.16 | 116762 | 135752
8 | 30:10.03 | 4:01.50 | 135753 | 153877
9 | 34:11.53 | 4:25.03 | 153878 | 173755
10 | 38:36.56 | 3:47.11 | 173756 | 190791
11 | 42:23.67 | 5:21.06 | 190792 | 214872
12 | 47:44.73 | 8:02.28 | 214873 | 251050


Range status and errors

Selected range

Filename C:\Documents and Settings\Telemusic Store\Desktop\Vasco Rossi - Vivere o niente.wav

Peak level 100.0 %
Extraction speed 0.9 X
Range quality 99.9 %
Test CRC 3130FB7C
Copy CRC 3130FB7C
Copy OK

No errors occurred

End of status report


Artist...............: Vasco Rossi
Album................: Vivere O Niente
Genre................: Rock
Source...............: CD
Year.................: 2011
Ripper...............: EAC (Secure mode) / LAME 3.92 & Asus CD-S520
Codec................: LAME 3.92
Version..............: MPEG 1 Layer III
Quality..............: Insane, (bitrate: 320kbps)
Channels.............: Stereo / 44100 hz



1. (00:04:55) Vasco Rossi - Vivere non è facile
2. (00:03:54) Vasco Rossi - Manifesto futurista della nuova umanità
3. (00:04:53) Vasco Rossi - Strarò meglio di così
4. (00:03:29) Vasco Rossi - Prendi la strada
5. (00:05:01) Vasco Rossi - Dici che
6. (00:03:46) Vasco Rossi - Eh...già
7. (00:04:13) Vasco Rossi - Sei pazza di me
8. (00:04:02) Vasco Rossi - Vivere o niente
9. (00:04:25) Vasco Rossi - L'aquilone
10. (00:03:47) Vasco Rossi - Non sei quella che eri
11. (00:05:21) Vasco Rossi - Stammi vicino
12. (00:08:02) Vasco Rossi - Maledetta ragione (bonus track)

Playing Time.........: 00:55:48
Total Size...........: 127,75 MB




.: FLAC :.

Vasco Rossi - Vivere O Niente (2011) FLAC


.: Mp3 @ 320 Kbps :.

Vasco Rossi - Vivere O Niente (2011)


Vasco Rossi - Vivere O Niente (2011)


Password : crazy

Please DO NOT MIRROR

If you'll find that my links are dead please let me know through the Private Messages.

>>> Visit edi1967 Blog Here <<<

ADVERTISING » Very Fast Download! « ADVERTISING


Posted By: yadocam Date: 28 Mar 2011 20:35:21
PECCATO CHE ..... "Folder does not contain any files!"
Posted By: edi1967 Date: 28 Mar 2011 20:49:38
tutto funziona perfettamente di nuovo
Posted By: holala Date: 28 Mar 2011 21:15:58
Many thanks edi
Posted By: alienmsg Date: 29 Mar 2011 12:43:38
Hello as usually the stuff ask for password and "crazy" is not working. Any help?
Tks
Posted By: edi1967 Date: 29 Mar 2011 12:51:24
By 1061 NEWS ( i posted 1061 resources here ) password ia ALWAYS the same crazy and work perfectly try better please and type is directly dont copy paste
Posted By: gipo63 Date: 29 Mar 2011 16:02:51
Thank you but... why not in lossless?
Great post anyway...
Posted By: edi1967 Date: 29 Mar 2011 16:17:12
oh my god :) album is released today i posted it yesterday ... you must wait sometime for have loassless right? :) when will be done i will post it
Posted By: alienmsg Date: 30 Mar 2011 15:34:59
Hi edil but is i'm using stufflt from appstore to unstaff the music or other that you upload but the password is wrong. what are u using?
tks
Posted By: edi1967 Date: 30 Mar 2011 17:00:26
i upload from original cd that i have, and also password is absolutely correct by months and months i use always it :) try better type i dont copy/paste
Posted By: citromail Date: 14 May 2011 09:10:20
Grazie edi, il tuo post COME SEMPRE e' perfetto e funziona benissimo, GRAZIE!!!!