Loading...

Deep Purple - Made In Europe (1976) [Original EMI press # CDP 7 93796-2] RE-UP

Posted By : Shar'EmAll | Date : 05 Aug 2013 13:25:00 | Comments : 3 |
|



Deep Purple - Made In Europe (1976)
EAC | FLAC-IMG+CUE+LOG | 45:51 min | Covers Included | 293 MB
The Original EMI pressing | EMI Records Ltd. # CDP 7 93796-2

Made in Europe is a live album released by Deep Purple, recorded on the final dates in 1975 on which Ritchie Blackmore was a member of Deep Purple. It was released in 1976 after the group broke up. The songs featured on the album are from Deep Purple's Burn and Stormbringer albums.

Made in Europe features songs recorded live 4 April in Graz, Austria, 5 April in Saarbr├╝cken, Germany, and 7 April 1975 in Paris, France with the Rolling Stones Mobile Studio. According to the liner notes included on Mk III: The Final Concerts, though, the material featured on Made in Europe came, for the most part, from the Saarbr├╝cken show. Additionally, this performance is said to have experienced extensive studio editing and/or overdubbing of crowd noise and applause. Certainly there is a tape-loop of applause, given away by a whistling fans.


This live recording, made in 1975, comes from Ritchie Blackmore's last three concerts with the band before leaving to form Rainbow. It features Deep Purple Mark III, with David Coverdale on vocals and Glenn Hughes on bass and vocals. Coverdale is a convincing hard rock singer, though he lacks the winning quirkiness of Ian Gillan, while Hughes is a busier and more up-front player than Roger Glover. While "Burn" and "Mistreated" are worthy successors to previous Deep Purple tunes, the remaining material is weaker, and overall, this stuff is definitely a couple of notches below the glory days of Made in Japan. But Blackmore, for his swan song, still manages to inject a good deal of excitement, and his invention and fire raise the proceedings up somewhat.

-- Review by Stephen Raiteri, allmusic com


Tracklist:

01. Burn
02. Mistreated [Interpolating Rock Me Baby]
03. Lady Double Dealer
04. No One
05. Stormbringer

- David Coverdale - lead vocals
- Ritchie Blackmore - guitar
- Glenn Hughes - bass and vocals
- Jon Lord - Hammond organ and keyboards
- Ian Paice - drums

Original non-remastered pressed CD.
Manafactured in Italy by EMI Records Limited, 1990.
All thanks goes to the original ripper!

EAC LOG
Exact Audio Copy V0.99 prebeta 4 from 23. January 2008

EAC extraction logfile from 15. July 2008, 15:08

Deep Purple / Made in Europe

Used drive : TSSTcorpCD/DVDW SH-S182M Adapter: 4 ID: 0

Read mode : Secure
Utilize accurate stream : Yes
Defeat audio cache : Yes
Make use of C2 pointers : No

Read offset correction : 6
Overread into Lead-In and Lead-Out : No
Fill up missing offset samples with silence : Yes
Delete leading and trailing silent blocks : No
Null samples used in CRC calculations : Yes
Used interface : Installed external ASPI interface

Used output format : Internal WAV Routines
Sample format : 44.100 Hz; 16 Bit; Stereo


TOC of the extracted CD

Track | Start | Length | Start sector | End sector
---------------------------------------------------------
1 | 0:00.33 | 7:31.55 | 33 | 33912
2 | 7:32.13 | 11:42.17 | 33913 | 86579
3 | 19:14.30 | 4:19.23 | 86580 | 106027
4 | 23:33.53 | 16:44.22 | 106028 | 181349
5 | 40:18.00 | 5:33.13 | 181350 | 206337


Range status and errors

Selected range

Filename F:\Release\Deep Purple - Made in Europe\Deep Purple - Made in Europe.wav

Peak level 96.2 %
Range quality 99.9 %
Test CRC CC038FCE
Copy CRC CC038FCE
Copy OK

No errors occurred


AccurateRip summary

Track 1 accurately ripped (confidence 8) [1A8FA33D]
Track 2 accurately ripped (confidence 8) [094557A6]
Track 3 accurately ripped (confidence 8) [9E80CF8D]
Track 4 accurately ripped (confidence 8) [494E6FFC]
Track 5 accurately ripped (confidence 8) [4E64C63D]

All tracks accurately ripped

End of status report



MP3 & More HERE

Part 1
Part 2

Recovery info has included.


ADVERTISING » Very Fast Download! « ADVERTISING


Posted By: cherokee60 Date: 04 Aug 2010 08:04:56
thanks GREAT POST
Posted By: joseluisq Date: 29 Sep 2010 17:25:58
Thanks master Shar'EmAll for share,
This is great live album with Blackmore(Rainbow) & Coverdale(Whitesnake)
Awesome Deep Purple!!!
Posted By: FrancyD Date: 11 Aug 2013 20:17:12
Thanks so much for the share!!!!