Loading...

Spin Doctors - Turn It Upside Down [Epic EPC 476886 2] {Europe 1994}

Posted By : luckburz | Date : 08 Jan 2012 09:16:00 | Comments : 2 |
|



Spin Doctors - Turn It Upside Down
FLAC, EAC, LOG & CUE | Lossless Artwork | Size: 408 MB
Label/Cat#: Epic EPC 476886 2 | Country/Year: Europe 1994
Genre: Rock | Hoster: Filesonic/Uploaded/Filepost

MD5 [X] CUE [X] LOG [X] INFO TEXT [X] ARTWORK [X]

webfind [] selfrip [X]






Extraction Log:

LOG:
Exact Audio Copy V1.0 beta 2 from 29. April 2011

EAC extraction logfile from 3. October 2011, 20:08

Spin Doctors / Turn It Upside Down

Used drive : HL-DT-STDVDRAM GSA-H12L Adapter: 0 ID: 0

Read mode : Secure
Utilize accurate stream : Yes
Defeat audio cache : Yes
Make use of C2 pointers : No

Read offset correction : 667
Overread into Lead-In and Lead-Out : No
Fill up missing offset samples with silence : Yes
Delete leading and trailing silent blocks : No
Null samples used in CRC calculations : Yes
Used interface : Native Win32 interface for Win NT & 2000

Used output format : User Defined Encoder
Selected bitrate : 896 kBit/s
Quality : High
Add ID3 tag : No
Command line compressor : C:\Program Files\FLAC\flac.exe
Additional command line options : -5 -T "Artist=%artist%" -T "Title=%title%" -T "Album=%albumtitle%" -T "Date=%year%" -T "Tracknumber=%tracknr%" -T "Genre=%genre%" %source% -o %dest%


TOC of the extracted CD

Track | Start | Length | Start sector | End sector
---------------------------------------------------------
1 | 0:00.00 | 4:14.72 | 0 | 19121
2 | 4:14.72 | 3:49.03 | 19122 | 36299
3 | 8:04.00 | 4:04.25 | 36300 | 54624
4 | 12:08.25 | 5:11.32 | 54625 | 77981
5 | 17:19.57 | 4:18.70 | 77982 | 97401
6 | 21:38.52 | 4:23.58 | 97402 | 117184
7 | 26:02.35 | 4:47.40 | 117185 | 138749
8 | 30:50.00 | 3:41.40 | 138750 | 155364
9 | 34:31.40 | 3:55.00 | 155365 | 172989
10 | 38:26.40 | 3:39.05 | 172990 | 189419
11 | 42:05.45 | 3:53.37 | 189420 | 206931
12 | 45:59.07 | 4:41.55 | 206932 | 228061
13 | 50:40.62 | 4:34.70 | 228062 | 248681


Range status and errors

Selected range

Filename I:\=== VINYL RIPS ===\=== EAC===\Spin Doctors - Turn It Upside Down.wav

Peak level 97.5 %
Extraction speed 7.6 X
Range quality 100.0 %
Test CRC 5AFA98BF
Copy CRC 5AFA98BF
Copy OK

No errors occurred


AccurateRip summary

Track 1 accurately ripped (confidence 5) [7C4909D6] (AR v2)
Track 2 accurately ripped (confidence 5) [760CB86E] (AR v2)
Track 3 accurately ripped (confidence 5) [C65434BC] (AR v2)
Track 4 accurately ripped (confidence 5) [1FF2A8F4] (AR v2)
Track 5 accurately ripped (confidence 5) [64CEF6B9] (AR v2)
Track 6 accurately ripped (confidence 5) [7EF986E0] (AR v2)
Track 7 accurately ripped (confidence 5) [878EFCE2] (AR v2)
Track 8 accurately ripped (confidence 5) [28D149E1] (AR v2)
Track 9 accurately ripped (confidence 5) [3A5B899B] (AR v2)
Track 10 accurately ripped (confidence 5) [C27DA4ED] (AR v2)
Track 11 accurately ripped (confidence 5) [A79E6D8F] (AR v2)
Track 12 accurately ripped (confidence 5) [36686663] (AR v2)
Track 13 accurately ripped (confidence 5) [B958C0A3] (AR v2)

All tracks accurately ripped

End of status report

==== Log checksum B204C4FB03078C683807B65D2FAC151323577CED54F76227686997DC91AF1018 ====


CD Info:

Spin Doctors – Turn It Upside Down

Label: Epic
Catalog#: 476886 2
Format: CD, Album
Country: Europe
Released: 1994
Genre: Rock
Style: Alternative Rock

Tracklist:

1 Big Fat Funky Booty 4:14
2 You Let Your Heart Go Too Fast 3:49
3 Cleopatra's Cat 4:04
4 Hungry Hamed's 5:11
5 Biscuit Head 4:18
6 Indifference 4:23
7 Bags Of Dirt 4:47
8 Mary Jane 3:41
9 More Than Meets The Ear 3:55
10 Laraby's Gang 3:39
11 At This Hour 3:53
12 Someday All This Will Be Road 4:41
13 Beasts In The Woods 4:34

Notes:

Tracks: Clinton Studios, NYC, March 1994.
Mix: Acme Recording, Mamaroneck, NY, April 1994.
Recorded and mixed on Tes-1 Reference Monitors.
Mastered at Sterling Sound, NYC.

Barcode and Other Identifiers:

Barcode (String): 5099747688621
Barcode (Text): 5 099747 688621
Matrix / Runout (Complete): Sony Music 01-476886-10 12 B4
Matrix / Runout (Manufacturer): Sony Music
Matrix / Runout: 01-476886-10 12
Matrix / Runout (Stamper): B4
Rights Society: SACD SACEM SCAM SDRM BIEM
Label Code: LC 0199
Other: 01-476886-10
Other: CB 811
Other: CDC
Other: CX

Discogs Url: http://www.discogs.com/Spin-Doctors-Turn-It-Upside-Down/release/1804483



Review

by Stephen Thomas Erlewine

Success hits a lot of bands hard, but few harder than the Spin Doctors. Like many bands, the Doctors had the proverbial lifetime to write their first album, and just a few short months to deliver a second. And in those months, they were constantly attacked by critics and alt-rock fans, who thought they sneaked onto the charts through deceptive marketing. They didn't weather the criticism especially well, and their second record, Turn It Upside Down, is pretty much an over-thought mess. They were at their best turning out tuneful, barroom rockers, occasionally letting them run a little bit longer with jams. Here, the jams, not the songs, are at the foundation of the music, and there are no hooks (outside of "Cleopatra's Cat"). Furthermore, the production is cautious and glossy, resulting in a stillborn album that shows everything that could go wrong when a jam band decided to plunge headfirst into the mainstream. allmusicguide



Password:

finest-hq-audio

Check my blog for other lossless uploads:

http://www.avaxhome.ws/blogs/luckburz

ADVERTISING » Click here to download Ebooks/Magazines for free « ADVERTISING


Posted By: clasaase Date: 09 Jan 2012 05:00:30
Muchisimas gracias. Ojala publicaras su primer album "Pocket Full Of Kryptonite "
Posted By: Antipop Date: 29 Aug 2013 12:59:45
All links are dead.