Loading...

Wille And The Bandits - Breakfree (2012)

Posted By : popsakov | Date : 10 Jul 2013 11:17:09 | Comments : 0 |
|



Wille And The Bandits - Breakfree (2012)
EAC Rip | FLAC (Img) + Cue + Log ~ 347 Mb | MP3 CBR320 ~ 132 Mb
Scans Included (JPG, 300 dpi) | RAR 5% Recovery
Blues/Indie/Roots Rock | Label: Wille And The Bandits | WATB03

Having toured their unique brand of roots rock with the likes of Deep Purple, Joe Bonamassa, The John Butler Trio and Status Quo Wille and the Bandits are now proudly touring their brand new, critically acclaimed album 'Breakfree'.

The band are famous for creating an astonishingly huge sound, incorporating eclectic grooves from World music to Heavy Rock, using bizarre instrumentation such as Tongue Drum, Djembe, Lap steel guitar and Double bass they push the boundaries of what is expected of a modern three piece.

Although difficult to pigeon hole, Wille and the Bandits are taking roots rock music to a new level.

Wille and the Bandits are renowned for their diverse songwriting and often likened to the greats of the 70’s such as Led Zeppelin, Santana and Pink Floyd, this comparison, although bold, only scrapes the surface of the Bands influences and sound.

Wille and the Bandits are on a journey which has so far been miraculous. All achieved through hard work and a true passion for making music. Playing over 200 shows a year these guys are really tight.

Reviews:

Love the soul in the music ~ Bob Harris, BBC Radio 2

Great band, great dynamics, never know what to expect next ~ Zoe Ball, BBC Radio 1 and 2

Wille is a superb slide player, I love what these guys are doing ~ Joe Bonamassa

The new Seasick Steve ~ The Kaiser Chiefs

One of the best live acts in the country ~ The Daily Telegraph

Mind blowing ~ Deep Purple

Outstanding ~ Isle of Wight Festival

Wille and the Bandits are taking roots music to a new level ~ Rootstime Magazine

This incredibly talented band excels in playing not just one or two musical styles but in fact focus on performing several genres to an extremely high quality. The main difference with this band though, is that when they showcase their extraordinary craft by performing several styles, they do it with such ease. ~ Maverick Magazine

~ willeandthebandits.com


Track List:

01. Chillout [03:23]
02. Plastic Fame [03:40]
03. Break Free [04:00]
04. Learn To Live [04:01]
05. Mammom [04:17]
06. Blue Skies [05:30]
07. Power Of A View [03:56]
08. Get Up [03:42]
09. Under the Grove [06:23]
10. Running With the Stars [03:49]
11. Virgin Eyes [09:15]

EAC Log
Exact Audio Copy V1.0 beta 3 from 29. August 2011

EAC extraction logfile from 10. June 2013, 13:29

Wille and the Bandits / Breakfree

Used drive : Optiarc DVD RW AD-7240S Adapter: 1 ID: 1

Read mode : Secure
Utilize accurate stream : Yes
Defeat audio cache : Yes
Make use of C2 pointers : No

Read offset correction : 48
Overread into Lead-In and Lead-Out : No
Fill up missing offset samples with silence : Yes
Delete leading and trailing silent blocks : No
Null samples used in CRC calculations : Yes
Used interface : Native Win32 interface for Win NT & 2000

Used output format : User Defined Encoder
Selected bitrate : 896 kBit/s
Quality : High
Add ID3 tag : No
Command line compressor : C:\Program Files\Exact Audio Copy\FLAC\FLAC.EXE
Additional command line options : -V -8 -T "Date=%year%" -T "Genre=%genre%" %source%


TOC of the extracted CD

Track | Start | Length | Start sector | End sector
---------------------------------------------------------
1 | 0:00.00 | 3:23.14 | 0 | 15238
2 | 3:23.14 | 3:40.53 | 15239 | 31791
3 | 7:03.67 | 3:59.24 | 31792 | 49740
4 | 11:03.16 | 4:01.15 | 49741 | 67830
5 | 15:04.31 | 4:16.62 | 67831 | 87092
6 | 19:21.18 | 5:30.00 | 87093 | 111842
7 | 24:51.18 | 3:56.56 | 111843 | 129598
8 | 28:47.74 | 3:41.46 | 129599 | 146219
9 | 32:29.45 | 6:23.10 | 146220 | 174954
10 | 38:52.55 | 3:49.19 | 174955 | 192148
11 | 42:41.74 | 9:14.36 | 192149 | 233734


Range status and errors

Selected range

Filename D:\My Docs 2\My Music 2\Wille and the Bandits - Breakfree\Wille and the Bandits - Breakfree.wav

Peak level 98.8 %
Extraction speed 3.8 X
Range quality 99.9 %
Test CRC 283CDFEC
Copy CRC 283CDFEC
Copy OK

No errors occurred


AccurateRip summary

Track 1 accurately ripped (confidence 1) [41AD3F85] (AR v2)
Track 2 accurately ripped (confidence 1) [469824E0] (AR v2)
Track 3 accurately ripped (confidence 1) [9E705EE1] (AR v2)
Track 4 accurately ripped (confidence 1) [EB0D78CD] (AR v2)
Track 5 accurately ripped (confidence 1) [59E5D945] (AR v2)
Track 6 accurately ripped (confidence 1) [7CCB11AC] (AR v2)
Track 7 accurately ripped (confidence 1) [B80C6A21] (AR v2)
Track 8 accurately ripped (confidence 1) [B30055B9] (AR v2)
Track 9 accurately ripped (confidence 1) [6DA6952A] (AR v2)
Track 10 accurately ripped (confidence 1) [7F6AF4AC] (AR v2)
Track 11 accurately ripped (confidence 1) [4276CF49] (AR v2)

All tracks accurately ripped

End of status report

==== Log checksum E089925BBC1378A27B2CD102F233FC9FE7A2B732B76C0DED049B2E2C603C5E6B ====

DR Log
foobar2000 1.2.3 / Dynamic Range Meter 1.1.1
log date: 2013-07-10 00:14:42

--------------------------------------------------------------------------------
Analyzed: Wille and the Bandits / Breakfree
--------------------------------------------------------------------------------

DR Peak RMS Duration Track
--------------------------------------------------------------------------------
DR5 -0.10 dB -7.44 dB 3:23 01-Chillout
DR7 -0.10 dB -8.32 dB 3:41 02-Plastic Fame
DR6 -0.10 dB -7.66 dB 3:59 03-Break Free
DR4 -0.10 dB -6.05 dB 4:01 04-Learn To Live
DR9 -0.10 dB -12.79 dB 4:17 05-Mammom
DR9 -0.10 dB -11.66 dB 5:30 06-Blue Skies
DR9 -0.10 dB -10.87 dB 3:57 07-Power Of A View
DR8 -0.10 dB -8.89 dB 3:42 08-Get Up
DR14 -0.10 dB -18.87 dB 6:23 09-Under the Grove
DR7 -2.10 dB -10.79 dB 3:49 10-Running With the Stars
DR7 -0.10 dB -9.94 dB 9:14 11-Virgin Eyes
--------------------------------------------------------------------------------

Number of tracks: 11
Official DR value: DR8

Samplerate: 44100 Hz
Channels: 2
Bits per sample: 16
Bitrate: 863 kbps
Codec: FLAC
================================================================================


All thanks go to funny_horse

Visit my blog!

Download:

Uploaded: FLAC | mp3

DFiles: FLAC | mp3

pass: www.AvaxHome.ru
ADVERTISING » Very Fast Download! « ADVERTISING


No comments for the news