Loading...

The Who - Live Tommy at the Leeds (Soundboard Bootleg)

Posted By : Captain_Sensible | Date : 15 Jan 2010 13:31:16 | Comments : 2 |
|



The Who - Live Tommy at the Leeds (Soundboard Bootleg)
EAC Rip | Wavpack, CUE, LOG | 310 MB | Scans | Rock
Label: Midas Touch | Catalog Number: MD 61500 | RAR | RS.com

"It's an opera, 'innit?"
"How should we know what it bloody is?"

The bad news is, this is not the complete show. The good news is, what's here, just the "Tommy" portion of the famous (some would say 'infamous') show released on "Live at Leeds", is in excellent quality, better than that found on the Midas Touch Live at Leeds Complete release. It's as near perfect as it can get, at least sound quality wise. Recommended.

Description
This is a soundboard recording of the entire "Tommy" performance from the legendary "Live at Leeds" gig at the University of Leeds refectory on the 14th Feb 1970. This version contians more crowd participation than the official "Live at Leeds: Deluxe" version and and has a much more raw and authentic sound as it hasn't been "fiddled about" with so much. The famous crackles (caused by John's mic cable) are also in evidence!

This is a must for all fans of The Who.

EAC secure to WAV > dBpoweramp to WavPack v4.50

Track Listing

01. Overture [0:06:30.50]
02. It's a Boy [0:00:44.00]
03. 1921 [0:02:29.00]
04. Amazing Journey [0:03:21.50]
05. Sparks [0:04:26.62]
06. The Hawker [0:01:22.25]
07. Eyesight to the Blind [0:00:38.50]
08. Christmas [0:03:22.65]
09. The Acid Queen [0:03:37.00]
10. Pinball Wizard [0:02:54.10]
11. Do You Think it's Alright [0:00:22.50]
12. Fiddle About/Tommy Can You Hear Me? [0:02:11.25]
13. There's a Doctor [0:00:23.50]
14. Go to the Mirror! [0:04:49.15]
15. Miracle Cure [0:00:13.00]
16. Sally Simpson [0:04:05.35]
17. I'm Free [0:02:42.25]
18. Tommy's Holiday Camp [0:01:02.50]
19. We're Not Gonna Take It [0:08:24.38]


EAC LOG
Exact Audio Copy V0.99 prebeta 5 from 4. May 2009

EAC extraction logfile from 8. January 2010, 19:49

The Who / Live Tommy at the Leeds

Used drive : TSSTcorpCDDVDW SH-S203D Adapter: 3 ID: 0

Read mode : Secure
Utilize accurate stream : Yes
Defeat audio cache : No
Make use of C2 pointers : No

Combined read/write offset correction : 0
Overread into Lead-In and Lead-Out : No
Fill up missing offset samples with silence : Yes
Delete leading and trailing silent blocks : No
Null samples used in CRC calculations : No
Used interface : Native Win32 interface for Win NT & 2000
Gap handling : Not detected, thus appended to previous track

Used output format : Internal WAV Routines
Sample format : 44.100 Hz; 16 Bit; Stereo


TOC of the extracted CD

Track | Start | Length | Start sector | End sector
---------------------------------------------------------
1 | 0:00.00 | 6:30.50 | 0 | 29299
2 | 6:30.50 | 0:44.00 | 29300 | 32599
3 | 7:14.50 | 2:29.00 | 32600 | 43774
4 | 9:43.50 | 3:21.50 | 43775 | 58899
5 | 13:05.25 | 4:26.62 | 58900 | 78911
6 | 17:32.12 | 1:22.25 | 78912 | 85086
7 | 18:54.37 | 0:38.50 | 85087 | 87986
8 | 19:33.12 | 3:22.65 | 87987 | 103201
9 | 22:56.02 | 3:37.00 | 103202 | 119476
10 | 26:33.02 | 2:54.10 | 119477 | 132536
11 | 29:27.12 | 0:22.50 | 132537 | 134236
12 | 29:49.62 | 2:11.25 | 134237 | 144086
13 | 32:01.12 | 0:23.50 | 144087 | 145861
14 | 32:24.62 | 4:49.15 | 145862 | 167551
15 | 37:14.02 | 0:13.00 | 167552 | 168526
16 | 37:27.02 | 4:05.35 | 168527 | 186936
17 | 41:32.37 | 2:42.25 | 186937 | 199111
18 | 44:14.62 | 1:02.50 | 199112 | 203811
19 | 45:17.37 | 8:24.38 | 203812 | 241649


Track 1

Filename E:\Music\The Who - Live Tommy at the Leeds\The Who - 01 - Overture.wav

Peak level 74.5 %
Track quality 100.0 %
Copy CRC DF1A20A1
Copy OK

Track 2

Filename E:\Music\The Who - Live Tommy at the Leeds\The Who - 02 - It's a Boy.wav

Peak level 70.5 %
Track quality 100.0 %
Copy CRC 7CD7AEF3
Copy OK

Track 3

Filename E:\Music\The Who - Live Tommy at the Leeds\The Who - 03 - 1921.wav

Peak level 78.5 %
Track quality 100.0 %
Copy CRC 4B0D204D
Copy OK

Track 4

Filename E:\Music\The Who - Live Tommy at the Leeds\The Who - 04 - Amazing Journey.wav

Peak level 83.6 %
Track quality 100.0 %
Copy CRC D231395D
Copy OK

Track 5

Filename E:\Music\The Who - Live Tommy at the Leeds\The Who - 05 - Sparks.wav

Peak level 87.2 %
Track quality 100.0 %
Copy CRC 95D0A735
Copy OK

Track 6

Filename E:\Music\The Who - Live Tommy at the Leeds\The Who - 06 - The Hawker.wav

Peak level 87.4 %
Track quality 100.0 %
Copy CRC 31692DC8
Copy OK

Track 7

Filename E:\Music\The Who - Live Tommy at the Leeds\The Who - 07 - Eyesight to the Blind.wav

Peak level 79.1 %
Track quality 100.0 %
Copy CRC CECC70DD
Copy OK

Track 8

Filename E:\Music\The Who - Live Tommy at the Leeds\The Who - 08 - Christmas.wav

Peak level 85.4 %
Track quality 99.9 %
Copy CRC 21BD70B4
Copy OK

Track 9

Filename E:\Music\The Who - Live Tommy at the Leeds\The Who - 09 - The Acid Queen.wav

Peak level 100.0 %
Track quality 100.0 %
Copy CRC 40768D6B
Copy OK

Track 10

Filename E:\Music\The Who - Live Tommy at the Leeds\The Who - 10 - Pinball Wizard.wav

Peak level 80.6 %
Track quality 100.0 %
Copy CRC 128947F2
Copy OK

Track 11

Filename E:\Music\The Who - Live Tommy at the Leeds\The Who - 11 - Do You Think it's Alright.wav

Peak level 61.9 %
Track quality 100.0 %
Copy CRC 8320EC09
Copy OK

Track 12

Filename E:\Music\The Who - Live Tommy at the Leeds\The Who - 12 - Fiddle About,Tommy Can You Hear Me .wav

Peak level 85.5 %
Track quality 100.0 %
Copy CRC 37C8DD20
Copy OK

Track 13

Filename E:\Music\The Who - Live Tommy at the Leeds\The Who - 13 - There's a Doctor.wav

Peak level 59.0 %
Track quality 100.0 %
Copy CRC 8FC557A3
Copy OK

Track 14

Filename E:\Music\The Who - Live Tommy at the Leeds\The Who - 14 - Go to the Mirror!.wav

Peak level 75.1 %
Track quality 100.0 %
Copy CRC 944D29A8
Copy OK

Track 15

Filename E:\Music\The Who - Live Tommy at the Leeds\The Who - 15 - Miracle Cure.wav

Peak level 57.9 %
Track quality 100.0 %
Copy CRC F06801C1
Copy OK

Track 16

Filename E:\Music\The Who - Live Tommy at the Leeds\The Who - 16 - Sally Simpson.wav

Peak level 66.8 %
Track quality 100.0 %
Copy CRC 2F09F13C
Copy OK

Track 17

Filename E:\Music\The Who - Live Tommy at the Leeds\The Who - 17 - I'm Free.wav

Peak level 76.0 %
Track quality 100.0 %
Copy CRC 40091744
Copy OK

Track 18

Filename E:\Music\The Who - Live Tommy at the Leeds\The Who - 18 - Tommy's Holiday Camp.wav

Peak level 90.3 %
Track quality 100.0 %
Copy CRC 151DA6CD
Copy OK

Track 19

Filename E:\Music\The Who - Live Tommy at the Leeds\The Who - 19 - We're Not Gonna Take It.wav

Peak level 70.6 %
Track quality 100.0 %
Copy CRC 1E79E7E9
Copy OK

No errors occurred

End of status report


310mb in four RAR files

RS Links
Link 1
Link 2
Link 3
Link 4

ADVERTISING » Very Fast Download! « ADVERTISING


Posted By: bonzo59 Date: 30 Jan 2010 08:56:38
"Live At Leeds" infamous???
Maybe in another dimension....not in this one.
Posted By: appreciative Date: 07 Sep 2011 23:59:45
Halfway through listening to this and it's just such an interesting, relaxed performance.